<?xml version="1.0" standalone="no"?>
<!DOCTYPE svg PUBLIC "-//W3C//DTD SVG 1.1//EN" "http://www.w3.org/Graphics/SVG/1.1/DTD/svg11.dtd" >
<svg>
<metadata>
Created by FontForge 20120731 at Fri Nov 24 02:04:36 2017
 By www-data
SIL Open Font License
</metadata>
<defs>
<font id="LineAwesome" horiz-adv-x="1024" >
  <font-face 
    font-family="LineAwesome"
    font-weight="400"
    font-stretch="normal"
    units-per-em="1024"
    panose-1="0 0 0 0 0 0 0 0 0 0"
    ascent="819"
    descent="-205"
    bbox="-200 -179 1056 940"
    underline-thickness="1"
    underline-position="-2"
    unicode-range="U+000D-F38D"
  />
<missing-glyph horiz-adv-x="543" 
d="M51 102h307v457h-307v-114v-343zM0 611h410v-560h-410v560z" />
    <glyph glyph-name=".notdef" horiz-adv-x="543" 
d="M51 102h307v457h-307v-114v-343zM0 611h410v-560h-410v560z" />
    <glyph glyph-name=".null" horiz-adv-x="0" 
 />
    <glyph glyph-name="nonmarkingreturn" unicode="&#xd;" horiz-adv-x="0" 
 />
    <glyph glyph-name="space" unicode=" " horiz-adv-x="400" 
 />
    <glyph glyph-name="uni03ed" unicode="&#x3ed;" horiz-adv-x="999" 
d="M957 824q-14 -72 -55 -129t-95 -87t-100 -45t-84 -19q0 -6 2 -9t8 -13q6 -8 12 -18q-6 -12 -14 -14q-2 2 -7 9t-7 9l-6 6t-6 4q-2 2 -6 5t-6 3q-2 2 -7 3t-11 1h-10h-14q-72 0 -124 -20q4 14 15 23t31 19q22 10 30 16q12 8 23 18t23 24q14 16 22 24l17 -21t35 -19v-36
q50 16 94 34t76 40q32 24 55 43t41 45q20 26 30 40t22 36q14 24 16 28zM535 518q18 0 29 -1t21 -5t14 -5t10 -13q6 -10 8 -15t8 -25q8 -18 14 -28q2 0 10 4l12 6q-4 -24 -14 -33t-20 -7q-8 2 -16 -2t-8 -20q68 2 118 -32t78 -80q28 -44 78 -110t106 -110q-16 -12 -61 -32
t-79 -34q-32 -14 -36 -14q-34 36 -52 106t-26 128q-6 60 -33 107t-77 51q-4 -2 -12 -4q6 -4 19 -15t17 -15t12 -15t10 -21q4 -10 7 -28t3 -40q0 -16 -4 -41t-8 -41q-1 -6 -4 -16q-30 -10 -72 -10q-14 0 -24 1t-18 1q-6 0 -10 1t-8 1l-2 2q-2 32 -2 68q56 48 58 76l-22 -22
t-52 -38t-70 -24q-22 0 -102 116q-10 18 -24 30t-16 16q-2 0 -62 -14t-122 -28q-62 -12 -68 -12q-14 -2 -20 14v4q0 16 24 22q198 42 230 50q-8 16 1 22t31 12q4 0 11 3t11 3q4 2 10 -4t14 -18q60 12 68 14q30 8 36 -12q4 -16 -14 -22q-2 -2 -19 -6t-39 -8t-32 -6
q-8 -30 88 -112q30 0 63 41t33 59t-12 27t-26 9q-14 2 -25 7t-11 17q0 8 6 16q-6 2 -17 5t-17 5q14 18 18 35t2 31t-2 18q8 10 80 10zM403 426q4 0 14 -8l10 -8q-6 -2 -22 -5t-22 -5q-2 0 -6 8t-6 10q2 0 6 1t6 3q16 2 20 4zM431 362q0 -2 12 -21t24 -41q14 -22 16 -26
q-4 -4 -16 -12t-20 -12l-40 104q4 2 11 4t13 4zM657 104q2 -2 6 -14q-38 -14 -108 -24q-1 8 -4 24q26 10 106 14zM525 98h14q0 -8 2 -21t2 -19q-6 -2 -18 -4q-3 13 -3 24t3 20zM667 74q2 0 24 -43t26 -53q-51 -22 -115 -22q-32 0 -67 6q0 2 -5 37t-5 39q4 4 19 10t49 14
q36 10 74 12z" />
    <glyph glyph-name="uni0b2e" unicode="&#xb2e;" horiz-adv-x="574" 
d="M184 867q160 0 272 -112t112 -272t-112 -272t-272 -112q-58 0 -114 18q38 60 48 100q8 31 24 92q10 -20 35 -33t53 -13q86 0 143 70t57 170q0 94 -69 158t-169 64q-118 0 -186 -68t-68 -164q0 -46 22 -90t56 -60q12 -4 14 6q0 2 4 19t6 25q2 6 -2 10q-30 34 -30 88
q0 68 48 117t126 49q72 0 116 -43t44 -113q0 -76 -34 -126t-86 -50q-28 0 -46 21t-10 49q4 16 12 44t12 48q6 22 6 36q0 24 -12 39t-36 15q-28 0 -49 -27t-21 -67q0 -14 3 -29t7 -21q1 -2 2 -6q-38 -162 -44 -192q-10 -38 -2 -110q-108 44 -176 141t-68 217q0 160 112 272
t272 112z" />
    <glyph glyph-name="unif000" unicode="&#xf000;" 
d="M264 716h20h456h20l8 -20q32 -72 32 -172q0 -110 -74 -192t-182 -94v-194h160v-64h-384v64h160v194q-108 12 -182 94t-74 192q0 100 32 172q3 6 8 20zM308 652q-20 -58 -20 -128q0 -94 65 -159t159 -65q84 0 147 55t73 137q-147 0 -442 2q-2 12 -2 28v4q0 14 1 28
q66 0 200 1q134 0 245 1q-4 56 -18 96h-408z" />
    <glyph glyph-name="unif001" unicode="&#xf001;" 
d="M864 756v-40v-512q0 -52 -38 -90t-90 -38t-90 38t-38 90t38 90t90 38q34 0 64 -18v236l-448 -84v-358q0 -52 -38 -90t-90 -38t-90 38t-38 90t38 90t90 38q34 0 64 -18v402v28q6 1 26 4l512 96q9 2 38 8zM800 678l-448 -84v-64l448 84v64zM736 268q-26 0 -45 -19t-19 -45
t19 -45t45 -19t45 19t19 45t-19 45t-45 19zM224 172q-26 0 -45 -19t-19 -45t19 -45t45 -19t45 19t19 45t-19 45t-45 19z" />
    <glyph glyph-name="unif002" unicode="&#xf002;" 
d="M608 780q132 0 226 -94t94 -226t-94 -226t-226 -94q-114 0 -202 72q-85 -86 -254 -256l-48 48q64 63 256 254q-72 88 -72 202q0 132 94 226t226 94zM608 716q-106 0 -181 -75t-75 -181t75 -181t181 -75t181 75t75 181t-75 181t-181 75z" />
    <glyph glyph-name="unif003" unicode="&#xf003;" 
d="M96 620h32h768h32v-32v-512v-32h-32h-768h-32v32v512v32zM234 556q69 -46 278 -184q70 46 278 184h-556zM160 528v-420h704v420q-84 -56 -334 -224q-5 -3 -18 -10q-4 2 -18 10q-83 56 -334 224z" />
    <glyph glyph-name="unif004" unicode="&#xf004;" 
d="M720 716q100 0 170 -70t70 -170q0 -36 -21 -78t-35 -58q-12 -16 -22 -26q-123 -123 -370 -368q-92 92 -370 368q-10 10 -23 26t-35 58q-20 42 -20 78q0 100 70 170t170 70q106 0 208 -92q102 92 208 92z" />
    <glyph glyph-name="unif005" unicode="&#xf005;" 
d="M970 474q-61 -55 -242 -218l68 -320q-71 40 -284 162q-71 -41 -284 -162l68 320q-60 54 -242 218q81 8 324 34q33 75 134 300q34 -75 134 -300q81 -9 324 -34z" />
    <glyph glyph-name="unif006" unicode="&#xf006;" 
d="M512 808q7 -17 28 -66q26 -59 104 -234q64 -7 256 -26l72 -8l-56 -48q-47 -43 -188 -170l52 -252l16 -68l-64 36l-220 128l-220 -128l-64 -36l16 68l52 252q-47 42 -188 170l-56 48l72 8q64 6 256 26q26 58 104 234q7 16 28 66zM512 652q-20 -47 -82 -186q-2 -5 -8 -18
h-18q-50 -6 -200 -22q37 -34 148 -134q4 -4 16 -14q-1 -5 -4 -18l-44 -196l176 100l16 8l16 -8l176 -100l-44 196q-1 4 -4 18q4 3 16 14q37 33 148 134q-50 5 -200 22h-18q-2 4 -8 18q-21 46 -82 186z" />
    <glyph glyph-name="unif007" unicode="&#xf007;" 
d="M502 716q92 0 158 -66t66 -158q0 -56 -27 -106t-73 -80q88 -38 142 -117t54 -177h-64q0 106 -75 181t-181 75t-181 -75t-75 -181h-64q0 98 54 177t142 117q-46 30 -73 80t-27 106q0 92 66 158t158 66zM502 652q-66 0 -113 -47t-47 -113t47 -113t113 -47t113 47t47 113
t-47 113t-113 47z" />
    <glyph glyph-name="unif008" unicode="&#xf008;" 
d="M128 748h32h704h32v-32v-704v-32h-32h-704h-32v32v440v264v32zM192 684v-640h64v32h64v-32h384v32h64v-32h64v640h-64v-32h-64v32h-384v-32h-64v32h-64zM256 588h64v-64h-64v64zM704 588h64v-64h-64v64zM256 460h64v-64h-64v64zM704 460h64v-64h-64v64zM256 332h64v-64
h-64v64zM704 332h64v-64h-64v64zM256 204h64v-64h-64v64zM704 204h64v-64h-64v64z" />
    <glyph glyph-name="unif009" unicode="&#xf009;" 
d="M160 716h32h640h32v-32v-640v-32h-32h-640h-32v32v400v240v32zM224 652v-256h256v256h-256zM544 652v-256h256v256h-256zM224 332v-256h256v256h-256zM544 332v-256h256v256h-256z" />
    <glyph glyph-name="unif00a" unicode="&#xf00a;" 
d="M96 684h32h768h32v-32v-576v-32h-32h-768h-32v32v576v32zM160 620v-128h128v128h-128zM352 620v-128h128v128h-128zM544 620v-128h128v128h-128zM736 620v-128h128v128h-128zM160 428v-128h128v128h-128zM352 428v-128h128v128h-128zM544 428v-128h128v128h-128zM736 428
v-128h128v128h-128zM160 236v-128h128v128h-128zM352 236v-128h128v128h-128zM544 236v-128h128v128h-128zM736 236v-128h128v128h-128z" />
    <glyph glyph-name="unif00b" unicode="&#xf00b;" 
d="M128 684h32h704h32v-32v-576v-32h-32h-704h-32v32v576v32zM192 620v-128h160v128h-160zM416 620v-128h416v128h-416zM192 428v-128h160v128h-160zM416 428v-128h416v128h-416zM192 236v-128h160v128h-160zM416 236v-128h416v128h-416z" />
    <glyph glyph-name="unif00c" unicode="&#xf00c;" 
d="M904 676l48 -48l-576 -576l-24 -20l-24 20l-256 256l48 48q58 -59 232 -234q138 138 552 554z" />
    <glyph glyph-name="unif00d" unicode="&#xf00d;" 
d="M232 692q70 -71 280 -282q70 70 280 282l48 -48q-70 -70 -282 -280q71 -70 282 -280l-48 -48q-70 70 -280 282q-70 -71 -280 -282l-48 48q70 70 282 280q-71 70 -282 280z" />
    <glyph glyph-name="unif00e" unicode="&#xf00e;" 
d="M608 780q132 0 226 -94t94 -226t-94 -226t-226 -94q-114 0 -202 72q-85 -86 -254 -256l-48 48q64 63 256 254q-72 88 -72 202q0 132 94 226t226 94zM608 716q-106 0 -181 -75t-75 -181t75 -181t181 -75t181 75t75 181t-75 181t-181 75zM576 588h64v-96h96v-64h-96v-96
h-64v96h-96v64h96v96z" />
    <glyph glyph-name="unif010" unicode="&#xf010;" 
d="M608 780q132 0 226 -94t94 -226t-94 -226t-226 -94q-114 0 -202 72q-85 -86 -254 -256l-48 48q64 63 256 254q-72 88 -72 202q0 132 94 226t226 94zM608 716q-106 0 -181 -75t-75 -181t75 -181t181 -75t181 75t75 181t-75 181t-181 75zM480 492h256v-64h-256v64z" />
    <glyph glyph-name="unif011" unicode="&#xf011;" 
d="M480 748h64v-384h-64v384zM384 726v-70q-86 -36 -139 -116t-53 -176q0 -132 94 -226t226 -94t226 94t94 226q0 96 -53 176t-139 116v70q114 -40 185 -139t71 -223q0 -158 -113 -271t-271 -113t-271 113t-113 271q0 124 71 223t185 139z" />
    <glyph glyph-name="unif012" unicode="&#xf012;" 
d="M672 748h192v-768h-192v768zM416 524h192v-544h-192v544zM160 300h192v-320h-192v320z" />
    <glyph glyph-name="unif013" unicode="&#xf013;" 
d="M422 780h26h128h26q1 -7 6 -26q4 -24 18 -94q44 -18 82 -50q31 10 94 32q6 2 26 8q3 -6 12 -22l64 -112q3 -6 12 -22l-18 -18q-18 -16 -72 -62q6 -36 6 -50t-6 -50q24 -21 72 -62q4 -5 18 -18q-3 -6 -12 -22l-64 -112q-3 -6 -12 -22q-7 2 -26 8q-24 8 -94 32
q-38 -32 -82 -50q-6 -32 -18 -94q-2 -7 -6 -26h-26h-128h-26q-1 6 -6 26q-4 23 -18 94q-44 18 -82 50q-31 -11 -94 -32q-6 -2 -26 -8q-3 5 -12 22l-64 112q-3 5 -12 22q5 4 18 18q18 15 72 62q-6 36 -6 50t6 50q-24 20 -72 62l-18 18q3 5 12 22l64 112q3 5 12 22q7 -2 26 -8
q24 -8 94 -32q38 32 82 50q6 31 18 94q2 6 6 26zM474 716l-16 -84q-1 -5 -4 -18q-4 -2 -18 -6q-54 -18 -96 -56q-5 -4 -16 -12l-16 4q-21 7 -82 28q-10 -16 -38 -64l64 -56l16 -12q-1 -5 -6 -20q-6 -26 -6 -56t6 -56q2 -7 6 -20l-16 -12l-64 -56q9 -16 38 -64q20 7 82 28
l16 4l16 -12q42 -38 96 -56l18 -6q1 -5 4 -18l16 -84h76l16 84q1 4 4 18q4 1 18 6q54 18 96 56q5 4 16 12l16 -4q21 -7 82 -28q10 16 38 64l-64 56q-3 3 -14 12l4 20q6 26 6 56t-6 56q-2 6 -6 20l16 12l64 56q-9 16 -38 64q-20 -7 -82 -28l-16 -4l-16 12q-42 38 -96 56
l-18 6q-1 4 -4 18l-16 84h-76zM512 524q66 0 113 -47t47 -113t-47 -113t-113 -47t-113 47t-47 113t47 113t113 47zM512 460q-40 0 -68 -28t-28 -68t28 -68t68 -28t68 28t28 68t-28 68t-68 28z" />
    <glyph glyph-name="unif014" unicode="&#xf014;" 
d="M353 700q2 -8 9 -31q-46 -13 -185 -53q5 -15 18 -61q8 2 31 9q246 71 328 94q81 23 226 64l30 9q-4 15 -17 61q-46 -13 -185 -52q-2 7 -9 30q-7 27 -30 40q-13 7 -28 7q-10 0 -21 -3q-41 -11 -123 -35q-27 -8 -39 -30t-5 -49zM538 753q2 -8 9 -31q-31 -9 -123 -35
q-3 8 -9 31q31 8 123 35zM808 588v-512q0 -40 -28 -68t-68 -28h-384q-40 0 -68 28t-28 68v489q21 6 35 11q15 4 42 12h215h284zM296 588v-512q0 -14 9 -23t23 -9h384q14 0 23 9t9 23v512h-448zM360 492h64v-352h-64v352zM488 492h64v-352h-64v352zM616 492h64v-352h-64v352z
" />
    <glyph glyph-name="unif015" unicode="&#xf015;" 
d="M512 792l24 -20l416 -416l-48 -48q-10 10 -40 42v-338v-32h-32h-224h-32v32v288h-128v-288v-32h-32h-224h-32v32v338q-10 -11 -40 -42l-48 48l416 416zM512 702l-288 -288v-370h160v288v32h32h192h32v-32v-288h160v370z" />
    <glyph glyph-name="unif016" unicode="&#xf016;" 
d="M160 780h32h384h12l12 -8l192 -192l8 -12v-12v-576v-32h-32h-576h-32v32v480v288v32zM224 716v-704h512v512h-160h-32v32v160h-320zM608 670v-82h82q-21 20 -82 82z" />
    <glyph glyph-name="unif017" unicode="&#xf017;" 
d="M512 748q158 0 271 -113t113 -271t-113 -271t-271 -113t-271 113t-113 271t113 271t271 113zM512 684q-132 0 -226 -94t-94 -226t94 -226t226 -94t226 94t94 226t-94 226t-226 94zM480 620h64v-224h160v-64h-192h-32v32v256z" />
    <glyph glyph-name="unif018" unicode="&#xf018;" 
d="M176 684h24h624h24l8 -24l148 -576l12 -40h-44h-920h-44l12 40l148 576zM224 620l-132 -512h380q0 32 2 128h76q1 -32 2 -128h380l-132 512h-260q1 -24 2 -96h-60q0 24 2 96h-260zM480 460h64l4 -160h-72z" />
    <glyph glyph-name="unif019" unicode="&#xf019;" 
d="M480 748h64v-530q42 42 168 170l48 -48l-224 -224l-24 -20l-24 20l-224 224l48 48q42 -43 168 -170v530zM224 44h432h144v-64h-576v64z" />
    <glyph glyph-name="unif01a" unicode="&#xf01a;" 
d="M512 780q172 0 294 -122t122 -294t-122 -294t-294 -122t-294 122t-122 294t122 294t294 122zM512 716q-146 0 -249 -103t-103 -249t103 -249t249 -103t249 103t103 249t-103 249t-249 103zM480 588h64v-328l128 128l44 -48l-180 -180l-24 -24l-24 24l-180 180l44 48
l128 -128v328z" />
    <glyph glyph-name="unif01b" unicode="&#xf01b;" 
d="M512 780q172 0 294 -122t122 -294t-122 -294t-294 -122t-294 122t-122 294t122 294t294 122zM512 716q-146 0 -249 -103t-103 -249t103 -249t249 -103t249 103t103 249t-103 249t-249 103zM512 592l24 -24l180 -180l-44 -48l-128 128v-328h-64v328l-128 -128l-44 48
l180 180z" />
    <glyph glyph-name="unif01c" unicode="&#xf01c;" 
d="M228 716h28h512h28l4 -28l64 -416v-2v-2v-224v-32h-32h-640h-32v32v224v2v2l64 416zM284 652q-13 -88 -54 -352h186h32v-32q0 -26 19 -45t45 -19t45 19t19 45v32h32h186q-14 88 -54 352h-456zM224 236v-160h576v160h-166q-12 -42 -45 -69t-77 -27t-77 27t-45 69h-166z
" />
    <glyph glyph-name="unif01d" unicode="&#xf01d;" 
d="M512 748q158 0 271 -113t113 -271t-113 -271t-271 -113t-271 113t-113 271t113 271t271 113zM512 684q-132 0 -226 -94t-94 -226t94 -226t226 -94t226 94t94 226t-94 226t-226 94zM384 584l48 -28l288 -164l48 -28l-48 -28l-288 -164l-48 -28v56v328v56zM448 474v-220
q48 27 192 110q-48 27 -192 110z" />
    <glyph glyph-name="unif01e" unicode="&#xf01e;" 
d="M512 780h32v-64h-32v64zM612 766q7 -2 28 -6v-2h2q6 -3 26 -10h2h2q0 -1 2 -2q-7 -15 -26 -58h-2h-2q-5 2 -22 8l-2 2q-6 1 -24 6q4 15 16 62zM128 748h224h32v-32v-224h-64v168q-74 -50 -117 -127t-43 -169q0 -146 103 -249t249 -103t249 103t103 249v32h64v-32
q0 -172 -122 -294t-294 -122t-294 122t-122 294q0 196 148 320h-116v64zM732 716l16 -12h2q6 -4 22 -16v-2h2q3 -2 10 -8l-44 -48l-6 6h-2q-5 4 -18 16h-2q-4 2 -16 10q9 13 36 54zM828 632l8 -8l2 -2q5 -6 18 -22v-2q3 -5 12 -18q-14 -9 -56 -34q-2 3 -8 14q-1 1 -2 4
q-4 4 -14 18v2l-8 8zM896 524q0 -1 2 -4h2v-2q2 -7 8 -26q1 -1 2 -4q2 -7 6 -26q-15 -5 -60 -18q-2 6 -8 26v2q-2 5 -8 22v2z" />
    <glyph glyph-name="unif021" unicode="&#xf021;" 
d="M512 748q174 0 288 -132v100h64v-192v-32h-32h-192v64h126q-96 128 -254 128q-102 0 -182 -56t-114 -148l-60 24q42 108 139 176t217 68zM808 248l60 -24q-42 -108 -139 -176t-217 -68q-172 0 -288 132v-100h-64v192v32h32h192v-64h-128q46 -58 113 -93t143 -35
q102 0 182 56t114 148z" />
    <glyph glyph-name="unif022" unicode="&#xf022;" 
d="M328 708l48 -48l-128 -128l-24 -20l-24 20l-64 64l48 48q10 -11 40 -42q26 26 104 106zM480 652h416v-64h-416v64zM328 452l48 -48l-128 -128l-24 -20l-24 20l-64 64l48 48q10 -11 40 -42q26 26 104 106zM480 396h416v-64h-416v64zM328 196l48 -48l-128 -128l-24 -20
l-24 20l-64 64l48 48q10 -11 40 -42q26 26 104 106zM480 140h416v-64h-416v64z" />
    <glyph glyph-name="unif023" unicode="&#xf023;" 
d="M480 780q92 0 158 -66t66 -158v-96h64h32v-32v-448v-32h-32h-576h-32v32v448v32h32h64v96q0 92 66 158t158 66zM480 716q-66 0 -113 -47t-47 -113v-96h320v96q0 66 -48 112q-46 48 -112 48zM224 396v-384h512v384h-512z" />
    <glyph glyph-name="unif024" unicode="&#xf024;" horiz-adv-x="574" 
d="M193 2q2 -4 1 -7q0 -8 -5 -15q-7 -11 -20 -14q-4 -1 -8 -1q-9 0 -18 5q-11 6 -15 18q-11 43 -23 92t-25 99q-23 92 -43 178q-20 85 -31 133q-1 5 -1 9q0 9 5 19q7 16 15 25q9 9 21 11h3q9 0 12 -12q40 -166 70 -292q31 -126 62 -248zM580 445q-21 -50 -85 -76
q-63 -27 -129 -6q-42 13 -81 3q-40 -11 -63 -50q-20 -41 -37 -41q-2 0 -3 1q-18 4 -24 30q-12 47 -28 108q-15 61 -40 166q24 56 83 87q59 30 132 9q73 -20 102 -14q29 7 55 29q24 19 36 22h2q12 -1 22 -38q13 -48 27 -98l26 -98q1 -2 2 -5q0 -2 1 -5q2 -5 3 -10q0 -2 -1 -3
v-11zM517 465q0 2 -1 4t-1 4q-11 39 -23 82l-20 70q-30 -19 -69 -19q-40 0 -88 15q-30 9 -54 9q-28 0 -49 -12q-38 -22 -51 -46q10 -50 21 -94q12 -44 25 -98q32 41 80 48q47 6 95 -8q38 -12 79 3t56 42z" />
    <glyph glyph-name="unif025" unicode="&#xf025;" 
d="M512 716q146 0 249 -103t103 -249v-128v-128q0 -40 -28 -68t-68 -28h-64h-32v32v224v32h32h96v64q0 120 -84 204t-204 84t-204 -84t-84 -204v-64h96h32v-32v-224v-32h-32h-64q-40 0 -68 28t-28 68v128v128q0 146 102 248q104 104 250 104zM224 236v-128q0 -32 32 -32h32
v160h-64zM736 236v-160h32q32 0 32 32v128h-64z" />
    <glyph glyph-name="unif026" unicode="&#xf026;" 
d="M480 728v-76v-576v-76l-56 52q-38 38 -150 152h-114h-32v32v256v32h32h114q37 38 150 152zM416 574q-26 -27 -104 -106l-12 -8h-12h-96v-192h96h12l12 -8q26 -27 104 -106v420z" />
    <glyph glyph-name="unif027" unicode="&#xf027;" 
d="M480 728v-76v-576v-76l-56 52q-38 38 -150 152h-114h-32v32v256v32h32h114q37 38 150 152zM416 574q-26 -27 -104 -106l-12 -8h-12h-96v-192h96h12l12 -8q26 -27 104 -106v420zM592 492q48 -56 48 -128t-48 -128q-15 16 -46 48q30 36 30 80t-30 80q15 16 46 48z" />
    <glyph glyph-name="unif028" unicode="&#xf028;" 
d="M480 728v-76v-576v-76l-56 52q-38 38 -150 152h-114h-32v32v256v32h32h114q37 38 150 152zM772 672q124 -130 124 -308t-124 -308q-15 14 -44 44q104 112 104 264t-104 264q15 14 44 44zM682 582q86 -92 86 -218t-86 -218l-46 46q68 74 68 172t-68 172zM416 574
q-26 -27 -104 -106l-12 -8h-12h-96v-192h96h12l12 -8q26 -27 104 -106v420zM592 492q48 -56 48 -128t-48 -128q-15 16 -46 48q30 36 30 80t-30 80q15 16 46 48z" />
    <glyph glyph-name="unif029" unicode="&#xf029;" 
d="M160 716h32h192h32v-32v-192v-32h-32h-96v-64h-64v64h-32h-32v32v192v32zM416 460h192v32v192v32h32h192h32v-32v-192v-32h-32h-32v-64h-64v64h-64v-64h-128v-64h64v-64h-192v-32v-192v-32h-32h-192h-32v32v192v32h32h160v64h128v64h-64v64zM800 396h64v-64h-64v64z
M800 332v-64h-64v64h64zM800 268h64v-64h-64v64zM800 204v-64h-32v-64h-64v64h-128v-128h-64v192h64h96v64h64v-64h64zM704 76v-64h-64v64h64zM736 332h-64v64h64v-64zM352 332h-64v64h64v-64zM224 396v-64h-64v64h64zM480 716h64v-64h32v-64h-32v-96h-64v32h-32v64h32v128z
M224 652v-128h128v128h-128zM672 652v-128h128v128h-128zM256 620h64v-64h-64v64zM704 620h64v-64h-64v64zM224 204v-128h128v128h-128zM256 172h64v-64h-64v64zM800 76h64v-64h-64v64z" />
    <glyph glyph-name="unif02a" unicode="&#xf02a;" 
d="M64 652h64v-576h-64v360v216zM192 652h192v-576h-192v576zM448 652h64v-576h-64v576zM576 652h128v-576h-128v576zM768 652h64v-576h-64v576zM896 652h64v-576h-64v576z" />
    <glyph glyph-name="unif02b" unicode="&#xf02b;" 
d="M511 716h12h308h32v-32q1 -77 1 -308v-12q-2 -2 -8 -10q-92 -92 -369 -367q-6 -5 -22 -20l-24 20q-77 76 -305 304l-20 24q5 5 20 22q91 93 365 371q3 2 10 8zM539 652q-83 -85 -335 -337l260 -260q84 85 336 337q0 65 -1 260h-260zM704 588q14 0 23 -9t9 -23t-9 -23
t-23 -9t-23 9t-9 23t9 23t23 9z" />
    <glyph glyph-name="unif02c" unicode="&#xf02c;" 
d="M468 748h12h288h32v-32v-288v-12l-8 -12l-352 -352l-24 -20l-24 20l-288 288l-20 24l20 24l352 352zM494 684l-320 -320l242 -242l320 320v242h-242zM832 652h64h32v-32v-308v-12q-2 -3 -8 -10q-84 -84 -338 -334q-5 -5 -22 -20l-24 20l-60 64l44 44l40 -40l304 304v260
h-32v64zM640 620q14 0 23 -9t9 -23t-9 -23t-23 -9t-23 9t-9 23t9 23t23 9z" />
    <glyph glyph-name="unif02d" unicode="&#xf02d;" 
d="M320 716q96 0 192 -38q96 38 192 38q46 0 97 -10t79 -22q9 -4 28 -10q5 -3 20 -10v-20v-584v-48h-360q-20 -32 -56 -32t-56 32h-360v48v584v20q5 2 20 10q100 42 204 42zM320 652q-74 0 -160 -32v-76v-440q84 28 160 28t160 -28v516q-90 32 -160 32zM704 652
q-70 0 -160 -32v-516q84 28 160 28t160 -28v516q-86 32 -160 32z" />
    <glyph glyph-name="unif02e" unicode="&#xf02e;" 
d="M224 716h32h512h32v-32v-640v-64q-13 9 -52 38q-59 44 -236 178q-59 -45 -236 -178q-13 -10 -52 -38v64v640v32zM288 652v-544q51 38 204 154q5 3 20 14q5 -4 20 -14q51 -39 204 -154v544h-448z" />
    <glyph glyph-name="unif02f" unicode="&#xf02f;" 
d="M288 748h32h384h32v-32v-192h64q40 0 68 -28t28 -68v-288v-32h-32h-128v-96v-32h-32h-384h-32v32v96h-128h-32v32v54v234q0 40 28 68t68 28h64v192v32zM352 684v-160h320v160h-320zM224 460q-32 0 -32 -32v-256h96v96v32h32h384h32v-32v-96h96v256q0 32 -32 32h-576z
M256 428q14 0 23 -9t9 -23t-9 -23t-23 -9t-23 9t-9 23t9 23t23 9zM352 236v-192h320v192h-320z" />
    <glyph glyph-name="unif030" unicode="&#xf030;" 
d="M368 684h16h256h16q2 -3 10 -12q9 -13 38 -52h192h32v-32v-512v-32h-32h-768h-32v32v512v32h32h192q10 13 38 52q3 3 10 12zM400 620q-10 -13 -38 -52q-3 -3 -10 -12h-16h-176v-448h704v448h-176h-16q-2 3 -10 12q-9 13 -38 52h-224zM256 524q14 0 23 -9t9 -23t-9 -23
t-23 -9t-23 9t-9 23t9 23t23 9zM512 524q80 0 136 -56t56 -136t-56 -136t-136 -56t-136 56t-56 136t56 136t136 56zM512 460q-54 0 -91 -37t-37 -91t37 -91t91 -37t91 37t37 91t-37 91t-91 37z" />
    <glyph glyph-name="unif031" unicode="&#xf031;" 
d="M480 684h64l224 -640h-64l-68 192h-248l-68 -192h-64zM512 592q-26 -73 -102 -292h204q-25 73 -102 292z" />
    <glyph glyph-name="unif032" unicode="&#xf032;" 
d="M512 652h-288v-576h352q68 0 114 46t46 114q0 52 -29 93t-77 57q42 48 42 106q0 68 -46 114t-114 46zM288 396v192h224q40 0 68 -28t28 -68t-28 -68t-68 -28h-224zM288 140v192h288q40 0 68 -28t28 -68t-28 -68t-68 -28h-288zM512 716q94 0 159 -65t65 -159
q0 -40 -16 -84q80 -68 80 -172q0 -94 -65 -159t-159 -65h-352h-64v64v576v64h64h288zM352 524v-64h160q32 0 32 32t-32 32h-160zM352 268v-64h224q32 0 32 32t-32 32h-224z" />
    <glyph glyph-name="unif033" unicode="&#xf033;" 
d="M376 716h30h256h34q0 -9 -2 -34q-1 -24 -6 -96q0 -8 -2 -30h-30h-34l-28 -384h30h34q-1 -9 -2 -34q-2 -24 -6 -96q-1 -8 -2 -30h-30h-256h-34q0 8 2 34q1 24 6 96q0 7 2 30h30h34l28 384h-30h-34q1 8 2 34q2 24 6 96q1 7 2 30zM436 652q-1 -8 -2 -32h30h34q-1 -9 -2 -34
l-32 -448q0 -8 -2 -30h-30h-34q0 -8 -2 -32h192q1 8 2 32h-30h-34q1 8 2 34l32 448q0 7 2 30h30h34q0 8 2 32h-192z" />
    <glyph glyph-name="unif034" unicode="&#xf034;" 
d="M128 684h512v-64h-224v-576h-64v576h-224v64zM800 664l112 -140h-80v-320h80l-112 -140l-112 140h80v320h-80z" />
    <glyph glyph-name="unif035" unicode="&#xf035;" 
d="M256 684h512v-64h-224v-448h-64v448h-224v64zM320 188v-80h384v80l140 -112l-140 -112v80h-384v-80l-140 112z" />
    <glyph glyph-name="unif036" unicode="&#xf036;" 
d="M96 652h832v-64h-832v64zM96 524h576v-64h-576v64zM96 396h832v-64h-832v64zM96 268h576v-64h-576v64zM96 140h832v-64h-832v64z" />
    <glyph glyph-name="unif037" unicode="&#xf037;" 
d="M96 652h832v-64h-832v64zM224 524h576v-64h-576v64zM96 396h832v-64h-832v64zM224 268h576v-64h-576v64zM96 140h832v-64h-832v64z" />
    <glyph glyph-name="unif038" unicode="&#xf038;" 
d="M96 652h832v-64h-832v64zM352 524h576v-64h-576v64zM96 396h832v-64h-832v64zM352 268h576v-64h-576v64zM96 140h832v-64h-832v64z" />
    <glyph glyph-name="unif039" unicode="&#xf039;" 
d="M99 653h832v-64h-832v64zM99 524h832v-64h-832v64zM99 396h832v-64h-832v64zM99 268h832v-64h-832v64zM99 140h832v-64h-832v64z" />
    <glyph glyph-name="unif03a" unicode="&#xf03a;" 
d="M128 716h32h128h32v-32v-128v-32h-32h-128h-32v32v128v32zM192 652v-64h64v64h-64zM384 652h480v-64h-480v64zM128 460h32h128h32v-32v-128v-32h-32h-128h-32v32v128v32zM192 396v-64h64v64h-64zM384 396h480v-64h-480v64zM128 204h32h128h32v-32v-128v-32h-32h-128h-32
v32v128v32zM192 140v-64h64v64h-64zM384 140h480v-64h-480v64z" />
    <glyph glyph-name="unif03b" unicode="&#xf03b;" 
d="M96 652h832v-64h-832v64zM96 524h608v-64h-608v64zM928 524v-320l-160 160zM96 396h608v-64h-608v64zM96 268h608v-64h-608v64zM96 140h832v-64h-832v64z" />
    <glyph glyph-name="unif03c" unicode="&#xf03c;" 
d="M96 652h416v-64h-416v64zM96 524h640v-64h-640v64zM800 524l160 -160l-160 -160v320zM96 396h640v-64h-640v64zM96 268h640v-64h-640v64zM96 140h416v-64h-416v64z" />
    <glyph glyph-name="unif03d" unicode="&#xf03d;" 
d="M64 620h32h640h32v-32v-76q36 18 146 72q11 6 46 24v-52v-384v-52q-12 6 -46 24q-37 18 -146 72v-76v-32h-32h-640h-32v32v280v168v32zM128 556v-384h576v76v20v192v20v76h-576zM896 504l-128 -64v-152l128 -64v280z" />
    <glyph glyph-name="unif03e" unicode="&#xf03e;" 
d="M64 716h32h832h32v-32v-640v-32h-32h-832h-32v32v400v240v32zM128 652v-412l200 200l24 24l24 -24l184 -184l120 120l24 24l24 -24l168 -168v444h-768zM768 588q26 0 45 -19t19 -45t-19 -45t-45 -19t-45 19t-19 45t19 45t45 19zM352 372l-224 -224v-72h518
q-73 74 -294 296zM704 308q-25 -25 -100 -98q33 -34 132 -134h160v40z" />
    <glyph glyph-name="unif040" unicode="&#xf040;" 
d="M790 748q42 0 74 -32q30 -30 30 -73t-30 -75q-1 -2 -4 -4q5 -5 20 -18l-22 -22q-125 -125 -498 -500q-2 -2 -8 -6q-2 -1 -10 -2l-176 -36q-11 -2 -46 -8q2 11 8 46l36 176q1 2 2 10q2 2 6 8q125 124 500 498q6 5 22 22l20 -20q0 1 2 4q32 32 74 32zM790 684
q-14 0 -28 -12l-2 -4l56 -56q1 0 4 2q14 14 14 28q0 15 -14 30q-14 12 -30 12zM696 642q-12 -12 -48 -46l96 -96q12 12 46 48zM604 550q-84 -84 -336 -334l60 -12l20 -4l4 -20l12 -60q83 84 334 336q-24 23 -94 94zM224 160q-4 -16 -14 -64q8 -9 34 -34q16 3 64 14l-16 68z
" />
    <glyph glyph-name="unif041" unicode="&#xf041;" 
d="M512 780q120 0 204 -84t84 -204q0 -56 -44 -152q-32 -78 -88 -172q-28 -50 -61 -102t-51 -78q-6 -9 -18 -26q-7 -10 -26 -38q-6 9 -26 38q-66 94 -130 206q-56 94 -88 172q-44 96 -44 152q0 120 84 204t204 84zM512 716q-94 0 -159 -65t-65 -159q0 -42 36 -128
q30 -66 88 -164q50 -86 100 -160q50 74 100 160q58 98 88 164q36 86 36 128q0 94 -66 158q-64 66 -158 66zM512 556q26 0 45 -19t19 -45t-19 -45t-45 -19t-45 19t-19 45t19 45t45 19z" />
    <glyph glyph-name="unif042" unicode="&#xf042;" 
d="M512 748q158 0 271 -113t113 -271t-113 -271t-271 -113t-271 113t-113 271t113 271t271 113zM512 684q-132 0 -226 -94t-94 -226t94 -226t226 -94v640z" />
    <glyph glyph-name="unif043" unicode="&#xf043;" 
d="M512 766q6 -8 24 -30q66 -78 130 -172q60 -90 90 -152q44 -88 44 -144q0 -118 -85 -203t-203 -85t-203 85t-85 203q0 56 44 144q30 62 90 152q28 42 61 85t51 65q6 7 18 22q6 7 24 30zM512 664q-60 -74 -102 -136q-52 -76 -86 -144q-36 -76 -36 -116q0 -92 66 -158
t158 -66t158 66t66 158q0 40 -36 116q-34 68 -86 144q-42 62 -102 136zM352 268h64q0 -40 28 -68t68 -28v-64q-66 0 -113 47t-47 113z" />
    <glyph glyph-name="unif044" unicode="&#xf044;" 
d="M800 748q40 0 67 -28t27 -68t-26 -68q-105 -106 -316 -316l-8 -8h-10l-112 -24q-11 -2 -46 -8q2 11 8 46l24 112v10l8 8l316 316q28 28 68 28zM800 684q-12 0 -22 -10q-103 -104 -310 -310l-12 -56l56 12q78 77 310 310q11 11 11 22t-11 22q-10 10 -22 10zM128 620h422
l-64 -64h-294v-512h512v294l64 64v-422h-640v400v240z" />
    <glyph glyph-name="unif045" unicode="&#xf045;" 
d="M160 716h32h640h32v-32v-640v-32h-32h-640h-32v32v400v240v32zM224 652v-576h576v576h-576zM719 185q0 30 -21 52q-21 21 -52 21q-12 0 -24 -5q-12 -4 -20 -11l-81 54q-34 22 -81 53q1 3 1 7q1 4 1 7q0 5 -1 8v7q60 38 112 72l52 33q8 -5 19 -9q11 -5 22 -5q31 0 52 21
q21 22 21 52t-21 51t-52 21q-30 0 -51 -21t-21 -51q0 -5 1 -10q1 -4 1 -9q-25 -17 -44 -29t-34 -21q-27 -18 -44 -29t-38 -26q-11 8 -22 13q-12 4 -25 4q-30 0 -51 -21q-22 -21 -22 -51t22 -52q21 -21 51 -21q12 0 23 4t20 11q58 -35 90 -55q32 -21 74 -48l-2 -8v-9
q0 -31 21 -52t51 -21q31 0 52 21q21 22 21 52z" />
    <glyph glyph-name="unif046" unicode="&#xf046;" 
d="M128 748h762l-64 -64h-634v-640h640v378l64 64v-506h-768v480v288zM872 644l48 -48l-384 -384l-24 -20l-24 20l-160 160l48 48q34 -35 136 -138q90 90 360 362z" />
    <glyph glyph-name="unif047" unicode="&#xf047;" 
d="M512 907l23 -23l181 -181q-12 -11 -46 -45q-31 31 -125 126v-388h387q-31 32 -126 126q11 12 45 45q46 -45 181 -181q6 -5 23 -22l-23 -23l-181 -181l-45 45l126 126h-387v-387q31 31 125 126l46 -46q-46 -45 -181 -181q-6 -5 -23 -22q-6 5 -23 22q-45 46 -181 181l46 46
q31 -32 125 -126v387h-387l126 -126l-45 -45q-46 45 -181 181l-23 23q6 5 23 22q45 46 181 181l45 -45q-32 -31 -126 -126h387v388q-31 -32 -125 -126q-12 11 -46 45q46 45 181 181z" />
    <glyph glyph-name="unif048" unicode="&#xf048;" 
d="M256 716h64v-336q4 2 14 10l416 288q13 8 50 34v-60v-576v-60q-12 8 -50 34l-416 288q-3 2 -14 10v-336h-64v704zM736 592l-328 -228l328 -228v456z" />
    <glyph glyph-name="unif049" unicode="&#xf049;" 
d="M256 716h64v-336q4 2 14 10l416 288q13 8 50 34v-60v-576v-60q-12 8 -50 34l-416 288q-3 2 -14 10v-336h-64v704zM736 592l-328 -228l328 -228v456z" />
    <glyph glyph-name="unif04a" unicode="&#xf04a;" 
d="M544 716v-64v-172q67 49 268 198q13 9 52 38v-64v-576v-64q-13 9 -52 38q-67 49 -268 198v-172v-64q-13 9 -52 38l-384 288q-8 6 -32 26q8 6 32 26l384 288q13 9 52 38zM800 588l-268 -196l-36 -28l36 -28l268 -196v448zM480 588q-74 -56 -298 -224q75 -56 298 -224v172
v40v24v40v172z" />
    <glyph glyph-name="unif04b" unicode="&#xf04b;" 
d="M288 712l48 -32l448 -288l44 -28l-44 -28l-448 -288l-48 -32v60v576v60zM352 594v-460q89 57 356 230q-89 57 -356 230z" />
    <glyph glyph-name="unif04c" unicode="&#xf04c;" 
d="M320 684h64v-640h-64v640zM640 684h64v-640h-64v640z" />
    <glyph glyph-name="unif04d" unicode="&#xf04d;" 
d="M160 684h32h576h32v-32v-576v-32h-32h-576h-32v32v576v32zM224 620v-512h512v512h-512z" />
    <glyph glyph-name="unif04e" unicode="&#xf04e;" 
d="M480 716q13 -10 52 -38l384 -288q8 -7 32 -26q-8 -7 -32 -26l-384 -288q-13 -10 -52 -38v64v172q-67 -50 -268 -198q-13 -10 -52 -38v64v576v64q13 -10 52 -38q67 -50 268 -198v172v64zM224 588v-448l268 196l36 28l-36 28zM544 588v-172v-40v-24v-40v-172q74 56 298 224
q-75 56 -298 224z" />
    <glyph glyph-name="unif050" unicode="&#xf050;" 
d="M704 716h64v-704h-64v336q-4 -3 -14 -10l-416 -288q-13 -9 -50 -34v60v576v60q12 -9 50 -34l416 -288q3 -3 14 -10v336zM288 592v-456l328 228z" />
    <glyph glyph-name="unif051" unicode="&#xf051;" 
d="M704 716h64v-704h-64v336q-4 -3 -14 -10l-416 -288q-13 -9 -50 -34v60v576v60q12 -9 50 -34l416 -288q3 -3 14 -10v336zM288 592v-456l328 228z" />
    <glyph glyph-name="unif052" unicode="&#xf052;" 
d="M512 664l24 -20l288 -288l52 -56h-76h-576h-76l52 56l288 288zM512 574q-52 -53 -210 -210h420q-53 52 -210 210zM128 172h768v-64h-768v64z" />
    <glyph glyph-name="unif053" unicode="&#xf053;" 
d="M632 702q-84 -85 -338 -338l338 -338q18 17 70 70q-61 61 -246 244l-24 24l24 24q62 61 246 244z" />
    <glyph glyph-name="unif054" unicode="&#xf054;" 
d="M392 702l-70 -70q61 -61 246 -244l24 -24l-24 -24q-62 -61 -246 -244q17 -18 70 -70l338 338q-85 84 -338 338z" />
    <glyph glyph-name="unif055" unicode="&#xf055;" 
d="M512 780q172 0 294 -122t122 -294t-122 -294t-294 -122t-294 122t-122 294t122 294t294 122zM512 716q-146 0 -249 -103t-103 -249t103 -249t249 -103t249 103t103 249t-103 249t-249 103zM480 556h64v-160h160v-64h-160v-160h-64v160h-160v64h160v160z" />
    <glyph glyph-name="unif056" unicode="&#xf056;" 
d="M512 780q172 0 294 -122t122 -294t-122 -294t-294 -122t-294 122t-122 294t122 294t294 122zM512 716q-146 0 -249 -103t-103 -249t103 -249t249 -103t249 103t103 249t-103 249t-249 103zM320 396h384v-64h-384v64z" />
    <glyph glyph-name="unif057" unicode="&#xf057;" 
d="M512 780q172 0 294 -122t122 -294t-122 -294t-294 -122t-294 122t-122 294t122 294t294 122zM512 716q-146 0 -249 -103t-103 -249t103 -249t249 -103t249 103t103 249t-103 249t-249 103zM392 532q30 -31 120 -122q30 30 120 122l48 -48q-30 -30 -122 -120
q31 -30 122 -120l-48 -48q-30 30 -120 122q-30 -31 -120 -122l-48 48q30 30 122 120q-31 30 -122 120z" />
    <glyph glyph-name="unif058" unicode="&#xf058;" 
d="M512 780q170 0 288 -118q-15 -16 -44 -46q-100 100 -244 100q-146 0 -249 -103t-103 -249t103 -249t249 -103t249 103t103 249q0 40 -10 80l52 52q22 -58 22 -132q0 -172 -122 -294t-294 -122t-294 122t-122 294t122 294t294 122zM872 644l48 -48l-384 -384l-24 -20
l-24 20l-160 160l48 48q34 -35 136 -138q90 90 360 362z" />
    <glyph glyph-name="unif059" unicode="&#xf059;" 
d="M512 748q158 0 271 -113t113 -271t-113 -271t-271 -113t-271 113t-113 271t113 271t271 113zM512 684q-132 0 -226 -94t-94 -226t94 -226t226 -94t226 94t94 226t-94 226t-226 94zM512 556q52 0 90 -38t38 -90q0 -38 -23 -70t-61 -46q-4 -2 -12 -4v-40h-64v40q0 48 44 62
q4 1 12 4q40 12 40 54q0 26 -19 45t-45 19t-45 -19t-19 -45h-64q0 52 38 90t90 38zM480 236h64v-64h-64v64z" />
    <glyph glyph-name="unif05a" unicode="&#xf05a;" 
d="M512 780q172 0 294 -122t122 -294t-122 -294t-294 -122t-294 122t-122 294t122 294t294 122zM512 716q-146 0 -249 -103t-103 -249t103 -249t249 -103t249 103t103 249t-103 249t-249 103zM480 556h64v-64h-64v64zM480 428h64v-256h-64v256z" />
    <glyph glyph-name="unif05b" unicode="&#xf05b;" 
d="M480 780h64v-66q126 -12 216 -102t102 -216h66v-64h-66q-12 -126 -102 -216t-216 -102v-66h-64v66q-126 12 -216 102t-102 216h-66v64h66q12 126 102 216t216 102v66zM480 652q-100 -12 -172 -84t-84 -172h64v-64h-64q12 -100 84 -172t172 -84v64h64v-64q100 12 172 84
t84 172h-64v64h64q-12 100 -84 172t-172 84v-64h-64v64z" />
    <glyph glyph-name="unif05c" unicode="&#xf05c;" 
d="M512 780q172 0 294 -122t122 -294t-122 -294t-294 -122t-294 122t-122 294t122 294t294 122zM512 716q-146 0 -249 -103t-103 -249t103 -249t249 -103t249 103t103 249t-103 249t-249 103zM392 532q30 -31 120 -122q30 30 120 122l48 -48q-30 -30 -122 -120
q31 -30 122 -120l-48 -48q-30 30 -120 122q-30 -31 -120 -122l-48 48q30 30 122 120q-31 30 -122 120z" />
    <glyph glyph-name="unif05d" unicode="&#xf05d;" 
d="M512 780q170 0 288 -118q-15 -16 -44 -46q-100 100 -244 100q-146 0 -249 -103t-103 -249t103 -249t249 -103t249 103t103 249q0 40 -10 80l52 52q22 -58 22 -132q0 -172 -122 -294t-294 -122t-294 122t-122 294t122 294t294 122zM872 644l48 -48l-384 -384l-24 -20
l-24 20l-160 160l48 48q34 -35 136 -138q90 90 360 362z" />
    <glyph glyph-name="unif05e" unicode="&#xf05e;" 
d="M512 780q172 0 294 -122t122 -294t-122 -294t-294 -122t-294 122t-122 294t122 294t294 122zM512 716q-126 0 -224 -80q164 -167 492 -500q84 98 84 228q0 146 -103 249t-249 103zM244 592q-84 -98 -84 -228q0 -146 103 -249t249 -103q126 0 224 80q-164 166 -492 500z
" />
    <glyph glyph-name="unif060" unicode="&#xf060;" 
d="M424 660l48 -48q-54 -54 -218 -216h642v-64h-642q55 -54 218 -216l-48 -48l-272 272l-20 24l20 24z" />
    <glyph glyph-name="unif061" unicode="&#xf061;" 
d="M600 660l272 -272l20 -24l-20 -24l-272 -272l-48 48q54 54 218 216h-642v64h642q-55 54 -218 216z" />
    <glyph glyph-name="unif062" unicode="&#xf062;" 
d="M512 744l24 -20l272 -272l-48 -48q-54 54 -216 218v-642h-64v642q-54 -55 -216 -218l-48 48l272 272z" />
    <glyph glyph-name="unif063" unicode="&#xf063;" 
d="M480 748h64v-642q54 54 216 218l48 -48l-272 -272l-24 -20l-24 20l-272 272l48 48q54 -55 216 -218v642z" />
    <glyph glyph-name="unif064" unicode="&#xf064;" 
d="M632 708l256 -256l20 -24l-20 -24l-256 -256l-48 48q50 50 202 200h-434q-66 0 -113 -47t-47 -113t47 -113t113 -47v-64q-92 0 -158 66t-66 158t66 158t158 66h434q-51 50 -202 200z" />
    <glyph glyph-name="unif065" unicode="&#xf065;" 
d="M448 716h384h32v-32v-384h-64v306q-132 -133 -530 -530h306v-64h-384h-32v32v384h64v-306l530 530h-306v64z" />
    <glyph glyph-name="unif066" unicode="&#xf066;" 
d="M904 804l48 -48l-300 -296h276v-64h-352h-32v32v352h64v-276zM96 332h352h32v-32v-352h-64v276l-296 -300l-48 48l300 296h-276v64z" />
    <glyph glyph-name="unif067" unicode="&#xf067;" 
d="M480 716h64v-320h320v-64h-320v-320h-64v320h-320v64h320v320z" />
    <glyph glyph-name="unif068" unicode="&#xf068;" 
d="M160 396h704v-64h-704v64z" />
    <glyph glyph-name="unif069" unicode="&#xf069;" 
d="M566 332q50 -67 198 -268l-76 -52q-44 69 -176 278q-44 -70 -176 -278q-18 13 -74 52q50 67 198 268l-296 76l28 84q73 -26 292 -102q-5 81 -20 326h96q-4 -82 -16 -326q72 25 288 102q6 -22 26 -86q-73 -19 -292 -74z" />
    <glyph glyph-name="unif06a" unicode="&#xf06a;" 
d="M512 748q158 0 271 -113t113 -271t-113 -271t-271 -113t-271 113t-113 271t113 271t271 113zM512 684q-132 0 -226 -94t-94 -226t94 -226t226 -94t226 94t94 226t-94 226t-226 94zM480 556h64v-256h-64v256zM480 236h64v-64h-64v64z" />
    <glyph glyph-name="unif06b" unicode="&#xf06b;" 
d="M384 716q64 0 120 -78q0 -2 8 -14q8 12 8 14q56 78 120 78q40 0 68 -28t28 -68q0 -16 -6 -32h134h32v-32v-128v-32h-32v-384v-32h-32h-640h-32v32v384h-32v32v128v32h32h134q-6 16 -6 32q0 40 28 68t68 28zM384 652q-32 0 -32 -32t32 -32h74q-2 2 -4 6l-4 8
q-36 50 -66 50zM640 652q-30 0 -66 -50q-2 -4 -3 -5t-3 -5q0 -2 -2 -4h74q32 0 32 32t-32 32zM192 524v-64h288v32h64v-32h288v64h-320h-48h-272zM224 396v-352h256v320h64v-320h256v352h-576z" />
    <glyph glyph-name="unif06c" unicode="&#xf06c;" 
d="M800 748l12 -36q52 -180 52 -428q0 -180 -76 -266q-60 -70 -154 -70q-66 0 -140 52q-16 10 -34 24t-30 22q-10 10 -10 12q11 18 32 54q12 -8 37 -28t41 -32q58 -40 104 -40q64 0 106 48q60 70 60 224q0 216 -44 380q-56 -22 -174 -51t-166 -45q-94 -34 -140 -84
q-52 -58 -52 -152q0 -76 72 -128q22 -16 52 -28q90 146 268 338q16 -15 48 -44q-272 -290 -332 -468q-18 -52 -16 -96q0 -8 3 -26t1 -32q-21 2 -64 8l-4 48q-4 56 18 120q16 44 44 96q-30 14 -56 32q-98 70 -98 180q0 120 70 196q56 60 164 100q56 18 188 49t186 55
q11 5 32 16z" />
    <glyph glyph-name="unif06d" unicode="&#xf06d;" 
d="M428 780q1 10 18 14q3 1 6 1q15 0 37 -21q74 -80 149 -164q162 -200 162 -374q0 -124 -62 -194q-70 -78 -222 -90q-2 -2 -4 -2h-4q-20 -2 -28 -2h-5h-3h-8h-6q-150 0 -230 88q-68 76 -68 188q0 156 128 330q14 22 44 60t44 58t28 44t18 40zM464 700q-10 -22 -26 -46
l-28 -42q-12 -16 -36 -49t-34 -47q-116 -158 -116 -292q0 -86 52 -144q10 -10 26 -24q-6 16 -6 20q-32 116 62 244q10 13 30 40l24 -44q20 -40 44 -48q12 -2 22 10q18 20 21 70t-19 136q-4 13 -12 40q-9 38 16 35q24 -2 48 -35l8 -12q27 -42 62 -108q46 -98 62 -180
q20 -100 -2 -164q16 12 28 24q46 52 46 152q0 150 -148 332q-65 71 -124 132zM562 324q-8 -56 -34 -88q-40 -44 -92 -28q-24 8 -48 32q-35 -69 -35 -120q0 -15 3 -28q22 -76 116 -80h4h4q12 0 32 2q10 2 14 2q50 10 70 52q13 26 13 66q0 33 -9 76q-6 32 -38 114z" />
    <glyph glyph-name="unif06e" unicode="&#xf06e;" 
d="M512 620q74 0 150 -24t132 -60q56 -34 100 -68t68 -58q7 -9 22 -26l20 -20l-20 -20q-8 -10 -22 -24t-60 -52t-94 -68t-120 -58q-70 -26 -140 -32q-16 -2 -36 -2t-36 2q-70 6 -140 32t-122 58q-50 34 -91 66t-63 54q-7 8 -20 24l-20 20l20 20q8 10 24 26t64 56
q50 42 103 73t129 55q78 26 152 26zM512 556q-94 0 -194 -46h2q-32 -52 -32 -114q0 -86 57 -150t143 -74h24h24v0q86 10 143 74t57 150q0 62 -32 116q-98 44 -192 44zM512 492q40 0 68 -28t28 -68t-28 -68t-68 -28t-68 28t-28 68t28 68t68 28zM232 462q-66 -44 -120 -98
q72 -72 156 -120q-44 68 -44 152q0 32 8 66zM792 462q8 -34 8 -66q0 -84 -44 -152q84 48 156 120q-54 54 -120 98z" />
    <glyph glyph-name="unif070" unicode="&#xf070;" 
d="M120 804l216 -216q90 32 176 32q76 0 152 -24t128 -56q52 -30 100 -69t64 -57q18 -18 28 -30q7 -8 20 -22q-5 -6 -20 -22q-98 -96 -236 -166q68 -68 204 -202l-48 -48q-54 55 -218 220q-14 15 -58 60q-25 24 -100 98q-28 27 -110 110q-25 25 -98 100l-48 48l-200 196z
M512 556q-60 0 -126 -20l66 -66q28 22 60 22q40 0 68 -28t28 -68q0 -32 -22 -60q30 -31 90 -92q60 66 60 152q0 62 -34 116q-96 44 -190 44zM212 528l82 -82q-6 -26 -6 -50q0 -86 57 -149t143 -73l2 -2h44q1 0 4 2q14 2 26 4l54 -54q-40 -12 -76 -14h-2q-24 -2 -28 -2t-28 2
h-2q-62 4 -131 30t-119 54q-48 30 -96 67t-66 53t-30 26q-7 7 -20 22q5 5 20 22q66 78 172 144zM232 464q-70 -44 -124 -98q72 -64 154 -112q-38 66 -38 142q0 32 8 68zM792 464q8 -36 8 -68q0 -76 -38 -142q82 48 152 110q-58 60 -122 100zM512 428q-6 0 -14 -4l42 -42
q4 8 4 14q0 14 -9 23t-23 9z" />
    <glyph glyph-name="unif071" unicode="&#xf071;" 
d="M512 772l28 -48l384 -664l28 -48h-56h-768h-56l28 48l384 664zM512 644l-328 -568h656zM480 428h64v-192h-64v192zM480 204h64v-64h-64v64z" />
    <glyph glyph-name="unif072" unicode="&#xf072;" 
d="M512 780q40 0 68 -28t28 -68v-236l268 -120l20 -8v-20v-96v-36l-36 4l-252 28v-60q20 -14 82 -54q3 -3 14 -10v-16v-80v-40q-10 2 -38 8q-39 8 -154 32q-38 -8 -154 -32q-9 -2 -38 -8v40v80v16q4 2 14 10q21 13 82 54v60l-252 -28l-36 -4v36v96v20l20 8l268 120v236
q0 40 28 68t68 28zM512 716q-32 0 -32 -32v-256v-20l-20 -8l-268 -120v-40l252 28l36 4v-36v-112v-18q-4 -3 -14 -10q-21 -14 -82 -54v-22q30 6 122 24h6h6q31 -6 122 -24v22q-20 13 -82 54q-3 2 -14 10v18v112v36l36 -4l252 -28v40l-268 120l-20 8v20v256q0 32 -32 32z" />
    <glyph glyph-name="unif073" unicode="&#xf073;" 
d="M288 748h64v-32h320v32h64v-32h96h32v-32v-640v-32h-32h-640h-32v32v400v240v32h32h96v32zM224 652v-64h576v64h-64v-32h-64v32h-320v-32h-64v32h-64zM224 524v-448h576v448h-576zM416 460h64v-64h-64v64zM544 460h64v-64h-64v64zM672 460h64v-64h-64v64zM288 332h64v-64
h-64v64zM416 332h64v-64h-64v64zM544 332h64v-64h-64v64zM672 332h64v-64h-64v64zM288 204h64v-64h-64v64zM416 204h64v-64h-64v64zM544 204h64v-64h-64v64z" />
    <glyph glyph-name="unif074" unicode="&#xf074;" 
d="M736 780l160 -160l-160 -160v128h-108l-280 -496l-8 -16h-20h-192v64h172l128 224l-128 224h-172v64h212l124 -224l116 208l8 16h20h128v128zM536 300l92 -160h108v128l160 -160l-160 -160v128h-148q-22 39 -88 158q9 16 36 66z" />
    <glyph glyph-name="unif075" unicode="&#xf075;" 
d="M96 684h32h768h32v-32v-576v-32h-32h-274q-21 -22 -86 -88l-24 -20l-24 20q-22 22 -86 88h-274h-32v32v576v32zM160 620v-512h256h12l12 -8q18 -19 72 -74q18 18 72 74l12 8h12h256v512h-704zM288 524h448v-64h-448v64zM288 396h448v-64h-448v64zM288 268h320v-64h-320
v64z" />
    <glyph glyph-name="unif076" unicode="&#xf076;" 
d="M262 116q-102 102 -102 248v320v32h32h192h32v-32v-320q0 -40 28 -68t68 -28t68 28t28 68v320v32h32h192h32v-32v-320q0 -146 -103 -249t-249 -103t-250 104zM716 160q84 84 84 204v160h-128v-160q0 -66 -47 -113t-113 -47t-113 47t-47 113v160h-128v-160t84 -204
t204 -84t204 84zM352 588v64h-128v-64h128zM800 588v64h-128v-64h128z" />
    <glyph glyph-name="unif077" unicode="&#xf077;" 
d="M512 604q-92 -93 -370 -372l78 -78l268 268q6 5 24 22q6 -6 24 -22l268 -268l78 78q-93 93 -370 372z" />
    <glyph glyph-name="unif078" unicode="&#xf078;" 
d="M220 574q-19 -20 -78 -78q93 -93 370 -372q92 93 370 372q-20 19 -78 78l-268 -268q-6 -6 -24 -22q-6 5 -24 22z" />
    <glyph glyph-name="unif079" unicode="&#xf079;" 
d="M160 652l160 -160h-128v-352h416l64 -64h-544v416h-128zM288 652h544v-416h128l-160 -160l-160 160h128v352h-416z" />
    <glyph glyph-name="unif07a" unicode="&#xf07a;" 
d="M967 549l-16 -48q-2 -5 -15 -43q-3 -9 -7 -22t-10 -30q-7 -22 -17 -51t-23 -69q-4 -8 -10 -14q-7 -6 -16 -8q-169 -38 -508 -114q1 -3 2 -9h74h67h34h47h79h107q14 0 25 -10q10 -10 10 -25q0 -14 -10 -25q-11 -10 -25 -10q0 -29 -21 -49q-20 -21 -49 -21t-50 21
q-20 20 -20 49h-21h-15q-37 0 -29 0q7 0 -39 0h-23h-31q0 -29 -20 -49q-21 -21 -50 -21q-28 0 -49 21q-21 20 -21 49q-11 0 -21 7q-9 8 -12 19q-6 24 -17 70q-39 147 -118 440l-22 9q-1 0 -36 15q-9 4 -20 9q-12 5 -28 12q-13 5 -18 19q-3 6 -3 13q1 7 3 14q5 14 21 19
q7 2 13 2q10 0 19 -4q17 -7 46 -21q30 -13 69 -30q5 -2 10 -6t8 -9q26 -2 40 -3q13 -1 50 -4q12 -1 28 -2t38 -3q28 -2 68 -5q40 -2 93 -6q72 -6 172 -13q99 -7 235 -17q8 -1 15 -5t11 -11q4 -6 4 -13q0 -8 2 -18zM664 71q0 -9 7 -16q6 -7 16 -7q9 0 16 7q6 7 6 16h-59h-5
h13q40 0 6 0zM366 71q0 -9 7 -16t16 -7t16 7t7 16h-59h-5h12q41 0 6 0zM886 530q-218 15 -654 47q32 -120 96 -359q163 37 490 110q23 67 68 202z" />
    <glyph glyph-name="unif07b" unicode="&#xf07b;" 
d="M192 780h32h512h32h96h32v-32v-288v-12l-8 -12q-14 -14 -56 -54v-402v-32h-32h-576h-32v32v768v32zM256 716v-704h512v370q-14 13 -56 54l-8 12v12v256h-448zM768 716v-242l32 -32l32 32v242h-64z" />
    <glyph glyph-name="unif07c" unicode="&#xf07c;" 
d="M160 780h32h640h32v-32v-288v-12l-8 -12q-14 -14 -56 -54v-370v-32h-32h-160v-48v-40l-40 8l-384 80q-6 1 -24 6v26v460v276v32zM452 716l68 -16l24 -8v-24v-274q14 -14 56 -54l8 -12v-12v-272h128v352v12l8 12q14 13 56 54v242h-348zM224 708v-670q80 -17 320 -66v40v32
v258q-14 13 -56 54l-8 12v12v264z" />
    <glyph glyph-name="unif07d" unicode="&#xf07d;" 
d="M512 808l24 -20l256 -256l-48 -48q-50 50 -200 202v-644q50 50 200 202l48 -48l-256 -256l-24 -20l-24 20l-256 256l48 48q50 -51 200 -202v644q-50 -51 -200 -202l-48 48l256 256z" />
    <glyph glyph-name="unif07e" unicode="&#xf07e;" 
d="M296 660l48 -48q-54 -54 -218 -216h772q-55 54 -218 216l48 48l272 -272l20 -24l-20 -24l-272 -272l-48 48q54 54 218 216h-772q55 -54 218 -216l-48 -48l-272 272l-20 24l20 24z" />
    <glyph glyph-name="unif080" unicode="&#xf080;" 
d="M672 748h32h192h32v-32v-704v-32h-32h-192h-32v32v704v32zM736 684v-640h128v640h-128zM96 556h32h192h32v-32v-512v-32h-32h-192h-32v32v512v32zM160 492v-448h128v448h-128zM384 364h32h192h32v-32v-320v-32h-32h-192h-32v32v320v32zM448 300v-256h128v256h-128z" />
    <glyph glyph-name="unif081" unicode="&#xf081;" 
d="M896 602q-32 -48 -78 -82v-20q0 -80 -30 -158t-86 -144q-54 -66 -141 -106t-191 -40q-132 0 -242 70q18 -2 38 -2q110 0 196 68q-52 0 -92 31t-56 79q14 -4 30 -4q22 0 42 6q-56 12 -92 55t-36 99v2q34 -18 72 -20q-70 48 -70 132q0 42 22 80q126 -156 324 -166
q-4 18 -4 36q0 66 46 112t112 46q68 0 114 -50q54 10 100 38q-18 -56 -68 -86q46 6 90 24z" />
    <glyph glyph-name="unif082" unicode="&#xf082;" 
d="M224 716h576q26 0 45 -19t19 -45v-576q0 -26 -19 -45t-45 -19h-576q-26 0 -45 19t-19 45v216v360q0 26 19 45t45 19zM224 652v-576h310v216h-84v96h84v72q0 60 34 94t90 34q52 0 74 -4v-88h-52q-26 0 -36 -11t-10 -35v-62h94l-12 -96h-82v-216h166v576h-576z" />
    <glyph glyph-name="unif083" unicode="&#xf083;" 
d="M368 684h16h256h16q2 -3 10 -12q9 -13 38 -52h192h32v-32v-512v-32h-32h-768h-32v32v512v32h32h32v32h128v-32h32q10 13 38 52q3 3 10 12zM400 620q-10 -13 -38 -52q-3 -3 -10 -12h-16h-176v-128h186q56 96 166 96t166 -96h186v128h-176h-16q-2 3 -10 12q-9 13 -38 52
h-224zM736 524h64v-64h-64v64zM512 460q-54 0 -91 -37t-37 -91t37 -91t91 -37t91 37t37 91t-37 91t-91 37zM160 364v-256h704v256h-164q4 -18 4 -32q0 -80 -56 -136t-136 -56t-136 56t-56 136q0 14 4 32h-164z" />
    <glyph glyph-name="unif084" unicode="&#xf084;" 
d="M640 780q118 0 203 -85t85 -203t-85 -203t-203 -85q-64 0 -128 32v-64v-32h-32h-64v-64v-32h-32h-64v-64v-32h-32h-160h-32v32v192v12l8 12q63 62 252 250q-4 32 -4 46q0 118 84 202q86 86 204 86zM640 716q-92 0 -158 -66t-66 -158q0 -16 6 -52q1 -6 2 -16l-12 -12
q-63 -64 -252 -254v-146h96v64v32h32h64v64v32h32h64v64v32h32h36h8l8 -4q50 -28 108 -28q92 0 158 66t66 158t-66 158t-158 66zM704 620q26 0 45 -19t19 -45t-19 -45t-45 -19t-45 19t-19 45t19 45t45 19z" />
    <glyph glyph-name="unif085" unicode="&#xf085;" 
d="M688 796h64v-44q38 -8 72 -32q10 10 30 32l46 -46q-8 -8 -32 -30q24 -34 32 -72h44v-64h-44q-8 -40 -32 -72q11 -12 32 -34l-48 -44l-28 32q-34 -22 -72 -30v-44h-64v44q-38 8 -72 32q-11 -12 -32 -36l-48 48l36 32q-24 34 -32 72h-44v64h44q8 38 30 72q-11 9 -32 28
l44 48q9 -8 34 -32q32 24 72 32v44zM720 690q-50 0 -84 -34t-34 -84t34 -84t84 -34t84 34t34 84t-34 84t-84 34zM304 500l24 -56q28 6 53 6t53 -6q7 18 22 56l60 -24l-24 -56q46 -28 76 -76q19 8 56 24l24 -60q-14 -6 -56 -22q6 -28 6 -53t-6 -53q19 -8 56 -24
q-6 -15 -24 -58q-14 5 -56 22q-30 -46 -76 -74q8 -20 24 -58l-60 -24q-6 14 -22 58q-28 -6 -53 -6t-53 6q-8 -20 -24 -58q-14 6 -58 24q6 14 22 58q-46 28 -74 74q-19 -8 -58 -22q-6 14 -24 58q14 6 58 24q-6 28 -6 53t6 53q-19 7 -58 22l24 60q14 -6 58 -24q28 46 74 76
q-7 18 -22 56q15 6 58 24zM380 386q-64 0 -108 -45t-44 -109q0 -62 45 -107t107 -45q64 0 109 44t45 108t-45 109t-109 45z" />
    <glyph glyph-name="unif086" unicode="&#xf086;" 
d="M64 716h32h576h32v-32v-448v-32h-32h-276l-152 -120l-52 -44v68v96h-96h-32v32v280v168v32zM128 652v-384h96h32v-32v-60l108 84l8 8h12h256v384h-512zM768 588h192v-512h-128v-164l-204 164h-296l80 64h240l116 -92v92h128v384h-128v64z" />
    <glyph glyph-name="unif087" unicode="&#xf087;" 
d="M534 780h14q38 0 65 -25t27 -59q0 -56 -30 -96q-8 -10 -20 -20l-6 -24h184q46 0 75 -36q22 -27 22 -58q0 -11 -3 -22q-23 -107 -70 -320q-6 -34 -33 -55t-59 -21h-508h-32v32v448v32h32h116l216 216q3 2 10 8zM556 712l-204 -200v-404h348q26 0 32 24q23 106 68 320v5
q0 13 -7 23q-9 12 -25 12h-226h-42l12 40q4 18 18 72l4 12q3 2 10 8q6 2 16 12q16 24 16 60q0 14 -20 16zM224 492v-384h64v384h-64z" />
    <glyph glyph-name="unif088" unicode="&#xf088;" 
d="M324 684h508h32v-32v-448v-32h-32h-116l-216 -216q-3 -2 -10 -8h-14q-38 0 -65 25t-27 59q0 56 30 96q8 10 20 20l6 24h-184q-46 0 -75 36q-22 27 -22 58q0 11 3 22q23 106 70 320q6 34 33 55t59 21zM324 620q-26 0 -32 -24q-23 -107 -68 -320v-6q0 -12 7 -22
q9 -12 25 -12h226h42l-12 -40q-4 -18 -18 -72l-4 -12q-3 -2 -10 -8q-6 -2 -16 -12q-16 -24 -16 -60q0 -14 20 -16q68 66 204 200v404h-348zM736 620v-384h64v384h-64z" />
    <glyph glyph-name="unif089" unicode="&#xf089;" 
d="M512 808v-710q-71 -41 -284 -162l68 320q-60 54 -242 218q81 8 324 34q33 75 134 300z" />
    <glyph glyph-name="unif08a" unicode="&#xf08a;" 
d="M304 716q116 0 208 -94q92 94 208 94q100 0 170 -71t70 -169q0 -40 -20 -81t-40 -61q-7 -6 -20 -18l-344 -348l-24 -24l-24 24l-344 348q-20 18 -40 46q-40 60 -40 114q0 98 70 169t170 71zM304 652q-72 0 -124 -52t-52 -124q0 -34 28 -78q11 -13 32 -38l324 -324
l324 324q60 66 60 116q0 72 -52 124t-124 52q-42 0 -88 -23t-72 -47q-8 -8 -24 -22l-24 -28l-24 28q-10 10 -27 25t-67 41q-48 26 -90 26z" />
    <glyph glyph-name="unif08b" unicode="&#xf08b;" 
d="M192 748h640v-256l-64 64v128h-512v-640h512v128l64 64v-256h-640v768zM716 524l140 -136l20 -24l-20 -24l-140 -136l-44 44q20 21 82 84h-310v64h310q-21 21 -82 84z" />
    <glyph glyph-name="unif08c" unicode="&#xf08c;" 
d="M240 716h544q32 0 56 -24t24 -56v-544q0 -32 -24 -56t-56 -24h-544q-32 0 -56 24t-24 56v204v340q0 32 24 56t56 24zM240 652q-16 0 -16 -16v-544q0 -16 16 -16h544q16 0 16 16v544q0 16 -16 16h-544zM334 596q22 0 38 -16t16 -38t-16 -38t-38 -16t-38 16t-16 38t16 38
t38 16zM624 452q66 0 89 -37t23 -107v-168h-94v148q0 80 -50 80q-56 0 -56 -78v-150h-94v304h90v-42h2q26 50 90 50zM288 444h96v-304h-96v304z" />
    <glyph glyph-name="unif08d" unicode="&#xf08d;" 
d="M656 794q6 -6 24 -22l240 -240l20 -24l-20 -24q-62 -60 -154 -48q-38 -39 -114 -116q16 -64 -1 -128t-65 -112q-7 -8 -22 -24l-24 24l-134 134q-66 -67 -266 -266h-44v44l266 266q-35 34 -138 138q-6 5 -24 22q6 5 24 22q92 94 224 70q44 43 132 130q6 78 52 130z
M662 696q-22 -40 -22 -74v-12q-2 -3 -8 -10l-148 -148q-3 -3 -14 -12q-4 1 -18 4q-76 22 -154 -32q87 -88 262 -262q58 80 28 172q-3 6 -8 18l16 16l132 132q4 3 14 14q5 -2 18 -6q38 -8 84 18q-61 60 -182 182z" />
    <glyph glyph-name="unif08e" unicode="&#xf08e;" 
d="M576 716h256h32v-32v-256h-64v178q-98 -99 -392 -394l-48 48q98 98 394 392h-178v64zM160 588h416l-64 -64h-288v-448h448v288l64 64v-416h-576v576z" />
    <glyph glyph-name="unif090" unicode="&#xf090;" 
d="M192 748h640v-288h-64v224h-512v-640h512v224h64v-288h-640v768zM560 524l44 -44q-21 -21 -82 -84h374v-64h-374q20 -21 82 -84l-44 -44q-34 34 -138 136q-5 6 -22 24q6 6 22 24q35 34 138 136z" />
    <glyph glyph-name="unif091" unicode="&#xf091;" 
d="M224 748q48 0 84 -32h408q36 32 84 32t86 -32q42 -38 42 -96q0 -44 -32 -86q-14 -18 -60 -58q-34 -34 -51 -57t-17 -55q0 -10 12 -26q4 -5 12 -14q-12 -12 -48 -46q-10 10 -20 26q-16 26 -20 52q-8 -26 -12 -34q-36 -94 -76 -146q-14 -20 -32 -36q50 -4 85 -41t35 -87
v-32h-32h-320h-32v32q0 50 35 87t85 41q-18 14 -34 36q-40 54 -76 146q0 2 -10 30q-4 -24 -20 -48q-7 -9 -20 -26q-12 11 -48 46q6 4 12 14q12 16 12 26q0 32 -17 55t-51 57q-46 40 -60 58q-32 42 -32 86q0 58 42 96q38 32 86 32zM224 684q-24 0 -44 -16q-20 -20 -20 -48
q0 -24 18 -48q12 -16 50 -50q42 -36 58 -58q-28 116 -30 212q-16 8 -32 8zM800 684q-16 0 -32 -8q-2 -96 -32 -216q20 26 60 62q38 34 50 50q18 24 18 48q0 28 -20 48q-20 16 -44 16zM324 652q8 -158 66 -308q32 -80 68 -128q32 -44 54 -44q20 0 52 44q36 46 68 128
q60 152 68 308h-376zM480 556h64v-160h-64v160zM448 76q-30 0 -50 -32h228q-20 32 -50 32h-128z" />
    <glyph glyph-name="unif092" unicode="&#xf092;" 
d="M512 748q160 0 272 -112t112 -272q0 -126 -73 -226t-189 -138q-26 -6 -26 18v38v68q0 48 -26 70q78 10 126 50t48 140q0 60 -38 104q18 44 -4 100q-32 10 -106 -38q-46 12 -96 12t-96 -12q-32 22 -59 32t-37 8q-3 -1 -10 -2q-22 -56 -4 -100q-38 -44 -38 -104
q0 -100 48 -140t126 -50q-20 -16 -24 -52q-74 -32 -112 32q-20 38 -60 40q-4 0 -8 -1t-10 -7q-4 -4 16 -14q26 -12 42 -58q2 -2 4 -7t12 -17t23 -18t37 -12t54 4v-29v-25v-12q0 -19 -16 -19q-5 0 -10 1q-116 38 -189 138t-73 226q0 160 112 272t272 112z" />
    <glyph glyph-name="unif093" unicode="&#xf093;" 
d="M512 760l24 -20l224 -224l-48 -48q-42 42 -168 170v-530h-64v530q-42 -43 -168 -170l-48 48l224 224zM224 44h432h144v-64h-576v64z" />
    <glyph glyph-name="unif094" unicode="&#xf094;" 
d="M416 748q168 0 289 -91t149 -217q42 -32 42 -76t-42 -76q-28 -130 -140 -219t-298 -89q-122 0 -208 116q-80 112 -80 268t80 268q86 116 208 116zM416 684q-90 0 -156 -90q-68 -94 -68 -230t68 -230q66 -90 156 -90t156 90q68 94 68 230t-68 230q-66 90 -156 90zM620 636
q0 -2 1 -3t3 -1q80 -112 80 -268t-80 -268q-2 -2 -14 -16q154 66 186 232q1 5 2 16q4 2 14 8q20 8 20 28t-20 28q-5 2 -14 8q0 4 -2 16q-12 64 -58 123t-118 97zM416 620q36 0 68 -24q-23 -51 -68 -152q-16 38 -64 154q32 22 64 22zM304 548l64 -152h-112q8 88 48 152z
M530 544q38 -62 46 -148h-112q16 37 66 148zM256 332h112q-16 -37 -66 -148q-38 62 -46 148zM464 332h112q-8 -88 -48 -152q-21 50 -64 152zM416 284q16 -39 64 -154q-32 -22 -64 -22q-36 0 -68 24q23 50 68 152z" />
    <glyph glyph-name="unif095" unicode="&#xf095;" 
d="M276 780q26 0 48 -16l2 -2l2 -2l128 -132q0 -1 2 -2l-2 -2q22 -18 22 -47t-20 -49q-21 -22 -64 -64q34 -78 90 -132t130 -88q21 20 62 62q1 0 2 2q20 18 50 18t50 -18l2 -4l128 -128q20 -20 20 -50t-20 -50q-33 -34 -98 -100h-2q-34 -30 -74 -30q-19 0 -38 6
q-216 86 -364 232q-160 162 -232 364q-7 19 -7 37q0 40 35 71v2q25 25 100 102v2q1 0 2 2q22 16 46 16zM276 716q-2 0 -6 -4l-98 -98v-2q-14 -12 -14 -28q0 -7 2 -14q66 -188 218 -340q136 -136 338 -216q10 -4 18 -4q17 1 32 14q33 32 98 96q2 3 2 5q0 3 -2 5
q-44 43 -132 130q-4 6 -8 0l-80 -80q-4 -4 -16 -14q-5 2 -20 10q-88 36 -162 104l-6 6q-36 32 -64 75t-40 71q-4 8 -12 26q-1 5 -6 20q4 3 14 14l80 80q6 4 4 8h-2l-2 2q-32 32 -128 130q-4 4 -8 4z" />
    <glyph glyph-name="unif096" unicode="&#xf096;" 
d="M160 716h32h640h32v-32v-640v-32h-32h-640h-32v32v400v240v32zM224 652v-576h576v576h-576z" />
    <glyph glyph-name="unif097" unicode="&#xf097;" 
d="M224 716h32h512h32v-32v-640v-64q-13 9 -52 38q-59 44 -236 178q-59 -45 -236 -178q-13 -10 -52 -38v64v640v32zM288 652v-544q51 38 204 154q5 3 20 14q5 -4 20 -14q51 -39 204 -154v544h-448z" />
    <glyph glyph-name="unif098" unicode="&#xf098;" 
d="M276 780q26 0 48 -16l2 -2l2 -2l128 -132q0 -1 2 -2l-2 -2q22 -18 22 -47t-20 -49q-21 -22 -64 -64q34 -78 90 -132t130 -88q21 20 62 62q1 0 2 2q20 18 50 18t50 -18l2 -4l128 -128q20 -20 20 -50t-20 -50q-33 -34 -98 -100h-2q-34 -30 -74 -30q-19 0 -38 6
q-216 86 -364 232q-160 162 -232 364q-7 19 -7 37q0 40 35 71v2q25 25 100 102v2q1 0 2 2q22 16 46 16zM276 716q-2 0 -6 -4l-98 -98v-2q-14 -12 -14 -28q0 -7 2 -14q66 -188 218 -340q136 -136 338 -216q10 -4 18 -4q17 1 32 14q33 32 98 96q2 3 2 5q0 3 -2 5
q-44 43 -132 130q-4 6 -8 0l-80 -80q-4 -4 -16 -14q-5 2 -20 10q-88 36 -162 104l-6 6q-36 32 -64 75t-40 71q-4 8 -12 26q-1 5 -6 20q4 3 14 14l80 80q6 4 4 8h-2l-2 2q-32 32 -128 130q-4 4 -8 4z" />
    <glyph glyph-name="unif099" unicode="&#xf099;" 
d="M896 602q-32 -48 -78 -82v-20q0 -80 -30 -158t-86 -144q-54 -66 -141 -106t-191 -40q-132 0 -242 70q18 -2 38 -2q110 0 196 68q-52 0 -92 31t-56 79q14 -4 30 -4q22 0 42 6q-56 12 -92 55t-36 99v2q34 -18 72 -20q-70 48 -70 132q0 42 22 80q126 -156 324 -166
q-4 18 -4 36q0 66 46 112t112 46q68 0 114 -50q54 10 100 38q-18 -56 -68 -86q46 6 90 24z" />
    <glyph glyph-name="unif09a" unicode="&#xf09a;" 
d="M676 702v-54v-55h-32h-33q-17 0 -29 -4t-19 -11q-6 -8 -9 -19t-3 -26v-59q-1 1 0 -20h121q-6 -41 -16 -123h-106v-314h-126v314h-106v123h106v90q0 39 10 69q11 30 33 51t50 31q29 11 65 11q17 1 31 1q12 0 23 -1q23 -1 40 -4z" />
    <glyph glyph-name="unif09b" unicode="&#xf09b;" 
d="M512 748q160 0 272 -112t112 -272q0 -126 -73 -226t-189 -138q-26 -6 -26 18v38v68q0 48 -26 70q78 10 126 50t48 140q0 60 -38 104q18 44 -4 100q-32 10 -106 -38q-46 12 -96 12t-96 -12q-32 22 -59 32t-37 8q-3 -1 -10 -2q-22 -56 -4 -100q-38 -44 -38 -104
q0 -100 48 -140t126 -50q-20 -16 -24 -52q-74 -32 -112 32q-20 38 -60 40q-4 0 -8 -1t-10 -7q-4 -4 16 -14q26 -12 42 -58q2 -2 4 -7t12 -17t23 -18t37 -12t54 4v-29v-25v-12q0 -19 -16 -19q-5 0 -10 1q-116 38 -189 138t-73 226q0 160 112 272t272 112z" />
    <glyph glyph-name="unif09c" unicode="&#xf09c;" 
d="M480 780q92 0 158 -66t66 -158v-92q96 -94 96 -228q0 -132 -94 -226t-226 -94t-226 94t-94 226t94 226t226 94q84 0 160 -44v44q0 66 -47 113t-113 47q-50 0 -92 -30t-60 -78l-60 24q26 66 83 107t129 41zM480 492q-106 0 -181 -75t-75 -181t75 -181t181 -75t181 75
t75 181t-75 181t-181 75zM480 300q26 0 45 -19t19 -45q0 -36 -32 -56v-104h-64v104q-32 20 -32 56q0 26 18 44q20 20 46 20z" />
    <glyph glyph-name="unif09d" unicode="&#xf09d;" 
d="M198 694h624q43 0 74 -30q30 -30 30 -74v-126v-2q0 -79 -2 -293q0 -44 -30 -74t-74 -30q-312 1 -386 3q-73 1 -202 2h-34q-44 0 -74 30q-30 31 -30 74v156v260q0 44 30 74t74 30zM198 625q-35 0 -35 -35v-104v-312q0 -35 35 -35h624q35 0 35 35v312h-659v70h659v34
q0 35 -35 35h-624z" />
    <glyph glyph-name="unif09e" unicode="&#xf09e;" 
d="M283 730q256 0 438 -182q183 -182 183 -438q0 -66 -12 -124h-128q15 58 15 124q0 205 -145 351q-146 145 -351 145q-66 0 -124 -15v32v96q58 11 124 11zM283 482q155 0 264 -109q108 -108 108 -263q0 -66 -23 -124h-136q35 58 35 124q0 101 -74 174q-73 74 -174 74
q-66 0 -124 -35v136q62 23 124 23zM283 234q50 0 87 -37t37 -87q0 -51 -37 -88q-37 -36 -87 -36q-51 0 -87 36q-37 37 -37 88q0 50 37 87q36 37 87 37z" />
    <glyph glyph-name="unif0a0" unicode="&#xf0a0;" 
d="M200 684h24h576h24l8 -24l96 -384v-4v-4v-192v-32h-32h-768h-32v32v192v4v4l96 384zM248 620l-80 -320h688l-80 320h-528zM160 236v-128h704v128h-704zM768 204q14 0 23 -9t9 -23t-9 -23t-23 -9t-23 9t-9 23t9 23t23 9z" />
    <glyph glyph-name="unif0a1" unicode="&#xf0a1;" 
d="M896 780v-64v-230q64 -24 64 -90t-64 -90v-230v-64q-13 9 -52 38q-64 46 -156 94q-182 92 -312 92h-108l52 -184q2 -10 10 -40h-42h-128h-24l-8 24l-64 224v4v4v256v32h32h280q134 0 314 92q40 20 79 44t57 36q6 4 18 14q13 9 52 38zM832 660q-60 -40 -112 -68
q-190 -98 -336 -100v-192q146 -2 334 -100q54 -26 114 -68v168v32v128v32v168zM128 492v-192h192v192h-192zM140 236l44 -160h60l-44 160h-60z" />
    <glyph glyph-name="unif0a2" unicode="&#xf0a2;" 
d="M480 780q26 0 45 -19t19 -45v-8q84 -22 138 -94t54 -162v-280q0 -32 32 -32h32v-64h-230q6 -16 6 -32q0 -40 -28 -68t-68 -28t-68 28t-28 68q0 16 6 32h-230v64h32q32 0 32 32v288q0 88 55 157t137 91v8q0 26 18 44q20 20 46 20zM466 652q-76 -6 -127 -61t-51 -131v-288
q0 -16 -6 -32h396q-6 16 -6 32v280q0 80 -54 139t-132 61h-6h-8h-6zM480 76q-32 0 -32 -32t32 -32t32 32t-32 32z" />
    <glyph glyph-name="unif0a3" unicode="&#xf0a3;" 
d="M512 780q30 0 56 -20l54 -36l60 -8h2q30 -4 53 -27t27 -53v-2v-2l12 -60l36 -52q40 -54 2 -116h-2q-9 -14 -36 -54l-8 -60l100 -152q8 -13 32 -50h-58h-94l-36 -84l-24 -56q-8 12 -32 50q-26 38 -102 152q-40 -18 -84 0q-34 -51 -102 -152q-8 -13 -32 -50l-24 56l-36 84
h-94h-58q8 12 32 50q26 39 104 158q-3 13 -12 54q-9 13 -36 54q-40 54 -2 116h2l36 48l8 64v0q8 32 30 54t54 30v0q15 2 62 8q13 9 54 36q26 20 56 20zM512 716q-12 0 -20 -8q-19 -14 -56 -40l-8 -4q-2 -1 -8 -2q-17 -3 -68 -10v0q-26 -6 -32 -32v0q-3 -23 -10 -68
q0 -2 -2 -8l-4 -8l-40 -52q-8 -12 -8 -23t8 -21q13 -19 40 -56l4 -8q1 -2 2 -8q4 -18 14 -72v-2q0 -6 4 -12q6 -12 20 -14h2q18 -3 70 -10q2 -1 8 -2l8 -4l52 -40q12 -8 23 -8t21 8q19 13 56 40l8 4q2 0 8 2q18 3 72 14h2q12 0 18 8v2q1 0 4 2q4 6 4 12v2q2 17 10 70
q0 2 2 8l4 8l40 56q8 12 8 22q0 12 -8 22q-13 18 -40 56q-1 1 -4 6q-1 1 -2 6q-4 18 -14 72v2q-2 24 -24 26h-2q-18 2 -70 10q-2 0 -8 2l-8 4l-56 40q-8 8 -20 8zM732 228q-20 -16 -44 -20h-2h-2q-21 -4 -62 -12q-3 -3 -14 -10l68 -104q5 12 20 50l8 20h22h56q-12 19 -50 76
zM292 228q-13 -19 -50 -76h56h22l8 -20q5 -13 20 -50q17 25 68 102l-12 12q-15 2 -62 8h-2q-28 4 -48 24z" />
    <glyph glyph-name="unif0a4" unicode="&#xf0a4;" 
d="M470 780h14q38 0 65 -25t27 -59q0 -56 -30 -96q-8 -10 -20 -20l-6 -24h344q40 0 68 -28t28 -68t-28 -68t-68 -28h-114q-13 -61 -54 -244q-6 -34 -33 -55t-59 -21h-508h-32v32v280v168v32h32h148l216 216q3 2 10 8zM492 712l-204 -200v-404h316q26 0 32 24q19 90 56 272
q1 6 6 24h26h140q32 0 32 32t-32 32h-386h-42l12 40q4 18 18 72l4 12q3 2 10 8q6 2 16 12q16 24 16 60q0 14 -20 16zM128 492v-384h96v384h-96z" />
    <glyph glyph-name="unif0a5" unicode="&#xf0a5;" 
d="M540 780h14q2 -2 10 -8l216 -216h148h32v-32v-448v-32h-32h-508q-32 0 -59 21t-33 55q-18 81 -54 244h-114q-40 0 -68 28t-28 68t28 68t68 28h344q-2 6 -6 24q-12 10 -20 20q-30 40 -30 96q0 34 27 59t65 25zM532 712q-20 -2 -20 -16q0 -36 16 -60q5 -4 16 -12
q2 -2 10 -8l4 -12q5 -18 18 -72l12 -40h-42h-386q-32 0 -32 -32t32 -32h140h26q2 -6 6 -24l56 -272q6 -24 32 -24h316v404zM800 492v-384h96v384h-96z" />
    <glyph glyph-name="unif0a6" unicode="&#xf0a6;" 
d="M416 812q40 0 68 -28t28 -68v-114q61 -14 244 -54q34 -6 55 -33t21 -59v-508v-32h-32h-448h-32v32v148l-216 216q-2 2 -8 10v14q0 38 25 65t59 27q56 0 96 -30q10 -8 20 -20l24 -6v344q0 40 28 68t68 28zM416 748q-32 0 -32 -32v-386v-42l-40 12q-18 4 -72 18l-12 4
q-2 2 -8 10q-2 6 -12 16q-24 16 -60 16q-14 0 -16 -20q67 -68 200 -204h404v316q0 26 -24 32q-91 18 -272 56q-6 1 -24 6v26v140q0 32 -32 32zM384 76v-96h384v96h-384z" />
    <glyph glyph-name="unif0a7" unicode="&#xf0a7;" 
d="M320 812h32h448h32v-32v-508q0 -32 -21 -59t-55 -33q-81 -18 -244 -54v-114q0 -40 -28 -68t-68 -28t-68 28t-28 68v344q-6 -2 -24 -6q-10 -12 -20 -20q-40 -30 -96 -30q-34 0 -59 27t-25 65v14q2 2 8 10l216 216v148v32zM384 748v-96h384v96h-384zM364 588l-200 -204
q2 -20 16 -20q36 0 60 16q4 5 12 16q2 2 8 10l12 4q18 4 72 18l40 12v-42v-386q0 -32 32 -32t32 32v140v26q6 1 24 6l272 56q24 6 24 32v316h-404z" />
    <glyph glyph-name="unif0a8" unicode="&#xf0a8;" 
d="M512 780q172 0 294 -122t122 -294t-122 -294t-294 -122t-294 122t-122 294t122 294t294 122zM512 716q-146 0 -249 -103t-103 -249t103 -249t249 -103t249 103t103 249t-103 249t-249 103zM488 568l48 -44l-128 -128h328v-64h-328l128 -128l-48 -44l-180 180l-24 24
l24 24z" />
    <glyph glyph-name="unif0a9" unicode="&#xf0a9;" 
d="M512 780q172 0 294 -122t122 -294t-122 -294t-294 -122t-294 122t-122 294t122 294t294 122zM512 716q-146 0 -249 -103t-103 -249t103 -249t249 -103t249 103t103 249t-103 249t-249 103zM536 568l180 -180l24 -24l-24 -24l-180 -180l-48 44l128 128h-328v64h328
l-128 128z" />
    <glyph glyph-name="unif0aa" unicode="&#xf0aa;" 
d="M512 780q172 0 294 -122t122 -294t-122 -294t-294 -122t-294 122t-122 294t122 294t294 122zM512 716q-146 0 -249 -103t-103 -249t103 -249t249 -103t249 103t103 249t-103 249t-249 103zM512 592l24 -24l180 -180l-44 -48l-128 128v-328h-64v328l-128 -128l-44 48
l180 180z" />
    <glyph glyph-name="unif0ab" unicode="&#xf0ab;" 
d="M512 780q172 0 294 -122t122 -294t-122 -294t-294 -122t-294 122t-122 294t122 294t294 122zM512 716q-146 0 -249 -103t-103 -249t103 -249t249 -103t249 103t103 249t-103 249t-249 103zM480 588h64v-328l128 128l44 -48l-180 -180l-24 -24l-24 24l-180 180l44 48
l128 -128v328z" />
    <glyph glyph-name="unif0ac" unicode="&#xf0ac;" 
d="M512 748q158 0 271 -113t113 -271t-113 -271t-271 -113t-271 113t-113 271t113 271t271 113zM512 684q-6 -1 -26 -2q18 -2 70 -6q5 -18 18 -72l-96 -20q-6 9 -26 36l-56 -12l20 -84l-128 -60q-22 -17 -86 -68q7 -16 30 -64h120l128 -96l-32 -128q8 -16 34 -62
q22 -2 30 -2q72 0 138 32q17 53 50 160q-22 56 -26 56q-22 -4 -66 -10q-16 12 -64 50l32 96q14 10 56 42l56 8l52 -32l20 40l-84 28q-17 -6 -70 -22q-1 16 -6 66l28 24q9 -4 36 -14l-8 64q7 0 28 2q-80 50 -172 50zM476 682q-40 -4 -74 -18q8 -2 24 -4q12 5 50 22zM194 340
q8 -98 68 -175t150 -105q-30 37 -90 112h-38l-60 64v68q-8 9 -30 36z" />
    <glyph glyph-name="unif0ad" unicode="&#xf0ad;" 
d="M115 -36q-26 28 -32 71q-1 5 -1 11q0 37 35 71q67 66 116 115l84 84q26 27 45 46q20 19 34 33q42 42 50 51q9 8 26 26q-4 16 -7 33q-2 17 -2 34q1 74 27 122q26 47 66 73q25 17 54 26t58 12q18 2 34 2q35 0 66 -8q46 -11 63 -29q-52 -53 -156 -157q6 -14 17 -42l42 -18
q52 53 157 158q27 -53 34 -98q3 -22 3 -43t-3 -41q-14 -70 -63 -115q-48 -45 -96 -61q-17 -5 -36 -9q-18 -3 -37 -3q-17 0 -34 3q-17 2 -33 7l-93 -93q-39 -40 -69 -69q-23 -23 -40 -41q-18 -17 -30 -30q-41 -41 -51 -50l-37 -37q-6 -7 -15 -15l-20 -20q-40 -35 -76 -35
q-6 0 -11 1q-42 6 -69 35zM693 719q-74 0 -127 -53t-53 -127q0 -17 3 -33q3 -17 9 -32l5 -11l2 -4q-127 -126 -379 -378q-16 -17 -16 -39v-3q1 -23 18 -40q17 -16 40 -16q22 0 39 16l124 124q53 52 91 91l50 50l37 37l55 55l21 21l15 -6q16 -6 32 -9q17 -3 33 -3
q74 0 127 53q53 52 53 127q0 10 -2 21q-1 11 -4 22q-17 -18 -31 -32q-13 -13 -23 -24q-39 -40 -40 -41q-1 0 -25 -25q-32 13 -95 38q-12 31 -38 95q41 40 122 120q-10 3 -21 4q-11 2 -22 2zM229 29q-4 -4 -11 -7q-6 -2 -12 -2t-12 2q-6 3 -10 7t-7 10q-2 6 -2 12t2 12
q3 7 7 11t10 7q6 2 12 2t12 -2q7 -3 11 -7t7 -11q2 -6 2 -12t-2 -12q-3 -6 -7 -10z" />
    <glyph glyph-name="unif0ae" unicode="&#xf0ae;" 
d="M160 716h32h640h32v-32v-128v-32h-32h-640h-32v32v128v32zM352 652v-64h448v64h-448zM160 460h32h640h32v-32v-128v-32h-32h-640h-32v32v128v32zM672 396v-64h128v64h-128zM160 204h32h640h32v-32v-128v-32h-32h-640h-32v32v128v32zM512 140v-64h288v64h-288z" />
    <glyph glyph-name="unif0b0" unicode="&#xf0b0;" 
d="M160 748h32h640h32v-32v-32v-12l-8 -8l-248 -312v-212v-16q-3 -3 -12 -10l-128 -96q-13 -10 -52 -38v64v308l-248 312l-8 8v12v32v32zM232 684l232 -288h96l232 288h-560zM480 332v-224l64 48v176h-64z" />
    <glyph glyph-name="unif0b1" unicode="&#xf0b1;" 
d="M512 780q44 0 78 -27t46 -69h260h32v-32v-576v-32h-32h-768h-32v32v576v32h32h260q12 42 46 68q34 28 78 28zM512 716q-40 0 -56 -32h112q-16 32 -56 32zM160 620v-288h704v288h-704zM512 428q14 0 23 -9t9 -23t-9 -23t-23 -9t-23 9t-9 23t9 23t23 9zM160 268v-160h704
v160h-704z" />
    <glyph glyph-name="unif0b2" unicode="&#xf0b2;" 
d="M128 748h32h256v-64h-178l274 -274l274 274h-178v64h256h32v-32v-256h-64v178q-68 -69 -274 -274l274 -274v178h64v-256v-32h-32h-256v64h178q-69 68 -274 274q-68 -69 -274 -274h178v-64h-256h-32v32v256h64v-178l274 274q-69 68 -274 274v-178h-64v256v32z" />
    <glyph glyph-name="unif0c0" unicode="&#xf0c0;" 
d="M256 652q80 0 136 -56t56 -136q0 -98 -80 -156q74 -36 112 -104q38 68 112 104q-80 58 -80 156q0 80 56 136t136 56t136 -56t56 -136q0 -98 -80 -156q66 -32 105 -93t39 -135h-64q0 80 -56 136t-136 56t-136 -56t-56 -136h-64q0 80 -56 136t-136 56t-136 -56t-56 -136
h-64q0 74 39 135t105 93q-80 58 -80 156q0 80 56 136t136 56zM256 588q-54 0 -91 -37t-37 -91t37 -91t91 -37t91 37t37 91t-37 91t-91 37zM704 588q-54 0 -91 -37t-37 -91t37 -91t91 -37t91 37t37 91t-37 91t-91 37z" />
    <glyph glyph-name="unif0c1" unicode="&#xf0c1;" 
d="M696 748q82 0 141 -59t59 -141q0 -84 -60 -142q-15 -16 -46 -46q-58 -60 -142 -60q-38 0 -72 14l52 52q10 -2 20 -2q56 0 96 40l48 48q40 38 40 95t-40 97t-96 40q-58 0 -96 -40l-48 -48q-48 -48 -38 -116q-17 -18 -52 -52q-14 34 -14 72q0 84 60 142l46 46q58 60 142 60
zM616 516l48 -48l-256 -256l-48 48zM376 428q38 0 72 -14q-17 -18 -52 -52q-10 2 -20 2q-56 0 -96 -40l-48 -48q-40 -38 -40 -95t40 -97t96 -40q58 0 96 40l48 48q48 48 38 116l52 52q14 -34 14 -72q0 -84 -60 -142q-15 -16 -46 -46q-58 -60 -142 -60q-82 0 -141 59t-59 141
q0 84 60 142l46 46q58 60 142 60z" />
    <glyph glyph-name="unif0c2" unicode="&#xf0c2;" 
d="M362 411q-70 22 -118 3q-49 -18 -75 -55q-14 -20 -22 -43q-7 -22 -7 -45q0 -63 45 -107q44 -45 108 -45h342q-73 0 -35 0t49 1q118 16 177 92q58 77 62 170q1 6 1 12q0 48 -18 90q-20 46 -54 80q-64 63 -160 78q-21 3 -41 3q-72 0 -135 -42q-41 -27 -72 -75
q-31 -47 -47 -117zM957 390q0 -45 -12 -87q-11 -43 -32 -80q-39 -69 -105 -113t-147 -44h-58h-68h-35q-19 0 -46 -1h-76h-101q-86 0 -146 61q-61 60 -61 146q0 85 61 146q60 61 146 61q11 0 21 -1l20 -4q22 70 60 119q39 49 87 78q50 30 108 39q28 5 55 5q30 0 59 -5
q104 -19 185 -102q80 -82 85 -218z" />
    <glyph glyph-name="unif0c3" unicode="&#xf0c3;" 
d="M544 876q14 0 23 -9t9 -23t-9 -23t-23 -9t-23 9t-9 23t9 23t23 9zM448 780q14 0 23 -9t9 -23h224v-64h-32v-244l196 -256q28 -34 28 -76q0 -54 -37 -91t-91 -37h-512q-54 0 -91 37t-37 91q0 42 28 76q65 85 196 256v244h-32v64h96q0 14 8 22q10 10 24 10zM416 684v-256
v-12l-8 -8l-84 -108h376l-84 108l-8 8v12v256h-192zM544 556q14 0 23 -9t9 -23t-9 -23t-23 -9t-23 9t-9 23t9 23t23 9zM276 236q-18 -23 -72 -90q-12 -16 -12 -38q0 -28 18 -46t46 -18h512q28 0 46 18t18 46q0 22 -12 38l-72 90h-472z" />
    <glyph glyph-name="unif0c4" unicode="&#xf0c4;" 
d="M192 684q52 0 90 -38t38 -90q0 -22 -8 -44q64 -38 192 -112l328 188h128l-648 -372q8 -22 8 -44q0 -52 -38 -90t-90 -38t-90 38t-38 90t38 90t90 38q46 0 82 -32q55 32 166 96q-42 23 -168 94q-36 -30 -80 -30q-52 0 -90 38t-38 90t38 90t90 38zM192 620q-24 0 -41 -14
t-23 -38v-12q0 -26 19 -45t45 -19t45 19t19 45t-19 45t-45 19zM612 338q87 -50 348 -198h-128l-284 164q16 8 64 34zM192 236q-24 0 -41 -14t-23 -38v-12q0 -26 19 -45t45 -19t45 19t19 45t-19 45t-45 19z" />
    <glyph glyph-name="unif0c5" unicode="&#xf0c5;" 
d="M128 748h32h448h32v-32v-64h-64v32h-384v-512h160v-64h-192h-32v32v576v32zM384 620h32h448h32v-32v-576v-32h-32h-448h-32v32v576v32zM448 556v-512h384v512h-384z" />
    <glyph glyph-name="unif0c6" unicode="&#xf0c6;" 
d="M672 748q72 0 123 -51t51 -123t-50 -122l-300 -300q-30 -30 -73 -30t-73 30t-30 73t30 71q91 92 274 276q12 -11 46 -44q-68 -69 -274 -276q-12 -12 -12 -28t10 -28q12 -10 28 -10t28 10l300 300q32 34 32 79t-32 77t-77 32t-77 -32l-300 -300q-54 -52 -54 -127t52 -129
q54 -52 128 -52t128 52q67 66 200 200q12 -11 46 -44l-200 -200q-72 -72 -173 -72t-173 72t-72 173t72 171l300 300q50 52 122 52z" />
    <glyph glyph-name="unif0c7" unicode="&#xf0c7;" 
d="M160 716h32h512h12l12 -8l128 -128l8 -12v-12v-512v-32h-32h-640h-32v32v400v240v32zM224 652v-576h64v256v32h32h384h32v-32v-256h64v466l-96 96v-146v-32h-32h-320h-32v32v160h-96zM384 652v-128h256v128h-64v-64h-64v64h-128zM352 300v-224h320v224h-320z" />
    <glyph glyph-name="unif0c8" unicode="&#xf0c8;" 
d="M160 716h32h640h32v-32v-640v-32h-32h-640h-32v32v400v240v32zM224 652v-576h576v576h-576z" />
    <glyph glyph-name="unif0c9" unicode="&#xf0c9;" 
d="M128 652h768v-64h-768v64zM128 396h768v-64h-768v64zM128 140h768v-64h-768v64z" />
    <glyph glyph-name="unif0ca" unicode="&#xf0ca;" 
d="M128 716h32h128h32v-32v-128v-32h-32h-128h-32v32v128v32zM192 652v-64h64v64h-64zM384 652h480v-64h-480v64zM128 460h32h128h32v-32v-128v-32h-32h-128h-32v32v128v32zM192 396v-64h64v64h-64zM384 396h480v-64h-480v64zM128 204h32h128h32v-32v-128v-32h-32h-128h-32
v32v128v32zM192 140v-64h64v64h-64zM384 140h480v-64h-480v64z" />
    <glyph glyph-name="unif0cb" unicode="&#xf0cb;" 
d="M192 780h12h20h32v-32v-192h-64v144q-30 -16 -52 -16v64q8 0 18 5t16 11q2 1 6 4zM352 684h544v-64h-544v64zM208 492q34 0 57 -23t23 -57q0 -28 -24 -48q-1 -2 -4 -4l-28 -28h56v-64h-128h-32v32v6v14q2 2 10 8q20 20 82 80l4 4q0 6 -5 11t-11 5t-11 -5t-5 -11v-16h-64
v16q0 34 22 56q24 24 58 24zM352 396h544v-64h-544v64zM128 204h96h32v-32v-6v-10l-4 -8l-12 -20q48 -24 48 -68q0 -34 -23 -57t-57 -23h-80v64h80q6 0 11 5t5 11t-5 11t-11 5h-16h-32v32v4v8l4 8l8 12h-44v64zM352 108h544v-64h-544v64z" />
    <glyph glyph-name="unif0cc" unicode="&#xf0cc;" horiz-adv-x="574" 
d="M676 330q3 0 5 -1q3 -1 4 -2q2 -2 3 -5q1 -2 1 -5v-21v-6q0 -3 -1 -6q-1 -2 -3 -4q-1 -2 -4 -3q-2 -1 -5 -1h-284h-199h-98h-70h-75q-11 0 -6 0q-3 0 -5 1q-3 1 -4 3q-2 2 -3 4q-1 3 -1 6v20v1v6q0 3 1 5q1 3 3 5q1 1 4 2q2 1 5 1h282h196h96h67h75h16zM135 357
q-6 8 -11 16l-10 18q-11 21 -16 41t-5 39q0 38 15 71q14 33 42 60t70 40q41 14 96 14q11 0 29 -2q17 -2 42 -6q14 -3 33 -8t42 -13q2 -8 4 -20q2 -13 5 -30q3 -26 4 -45q2 -20 2 -32q0 -4 -1 -9q0 -5 -1 -10q-4 -1 -10 -1q-5 -1 5 -1l-36 3q-2 0 -6 1q-10 31 -21 53t-22 34
q-19 19 -41 29q-23 9 -48 9q-24 0 -44 -6q-19 -6 -33 -19q-15 -12 -22 -27q-7 -16 -7 -34q0 -16 7 -31q7 -14 21 -29q14 -14 44 -28q29 -13 74 -26q15 -5 33 -12q18 -6 40 -16q13 -6 23 -12q10 -5 18 -10h-139h-93h-78q-11 0 -5 0v-1zM350 249h34h37h66h37q1 -8 2 -18t1 -21
q0 -23 -4 -46q-5 -22 -13 -44q-5 -12 -13 -23q-7 -11 -18 -21q-7 -7 -19 -16q-11 -8 -27 -18q-17 -10 -33 -17t-31 -11q-17 -4 -39 -7q-21 -2 -47 -2q-24 0 -45 3q-21 2 -38 7q-44 13 -57 15q-12 2 -2 2q-12 3 -20 6t-11 6q-1 1 -2 4q-1 2 -1 5v4v2v73v56q14 0 43 1
q3 -8 6 -15q4 -8 7 -16q3 -7 5 -13q3 -6 4 -10q2 -4 3 -7t2 -5q8 -12 16 -22q9 -10 18 -17q9 -8 20 -14q12 -6 25 -11q12 -4 26 -7q14 -2 30 -2q13 0 28 3t30 8q17 6 30 15t22 22q10 13 15 26q5 14 5 28q0 18 -8 35q-9 17 -26 32q-7 6 -22 14q-14 7 -36 16z" />
    <glyph glyph-name="unif0cd" unicode="&#xf0cd;" 
d="M224 748h64v-384q0 -80 56 -136t136 -56t136 56t56 136v384h64v-384q0 -106 -75 -181t-181 -75t-181 75t-75 181v384zM160 44h160h480v-64h-640v64z" />
    <glyph glyph-name="unif0ce" unicode="&#xf0ce;" 
d="M160 716h32h640h32v-32v-640v-32h-32h-640h-32v32v400v240v32zM224 652v-160h160v160h-160zM448 652v-160h128v160h-128zM640 652v-160h160v160h-160zM224 428v-128h160v128h-160zM448 428v-128h128v128h-128zM640 428v-128h160v128h-160zM224 236v-160h160v160h-160z
M448 236v-160h128v160h-128zM640 236v-160h160v160h-160z" />
    <glyph glyph-name="unif0d0" unicode="&#xf0d0;" 
d="M668 794q6 -6 24 -22l56 -60h80h32v-32v-80l60 -56q6 -6 22 -24q-6 -6 -24 -22q-14 -14 -58 -54v-84v-32h-32h-80q-14 -14 -56 -54q-6 -6 -24 -22l-22 22l-48 48q-93 -94 -374 -374l-22 -22q-6 5 -22 22l-84 84q-6 5 -22 20q5 6 22 24q94 93 374 374l-48 48l-22 22
q6 6 22 24q14 14 54 56v80v32h32h84q14 14 54 58q6 6 22 24zM668 702q-10 -11 -40 -42l-8 -12h-16h-64v-60v-12q-2 -3 -8 -10q-11 -12 -44 -46q7 -7 28 -26q31 30 122 122q6 6 22 24l24 -24l80 -80l24 -24l-24 -24l-120 -120l24 -28q11 11 46 44q2 2 10 8h12h60v64v16l12 8
q10 10 42 40l-44 44q-2 3 -10 12v12v60h-60h-12q-3 2 -12 10zM660 548l-496 -496q9 -9 38 -36q123 124 494 496zM608 204h64v-32h32v-64h-32v-32h-64v32h-32v64h32v32zM800 140h64v-64h64v-64h-64v-64h-64v64h-64v64h64v64z" />
    <glyph glyph-name="unif0d1" unicode="&#xf0d1;" 
d="M0 748h32h512h32v-32v-96h160h12l12 -8l192 -192l8 -12v-12v-288v-32h-32h-68q-12 -42 -46 -69t-78 -27t-78 27t-46 69h-264q-12 -42 -46 -69t-78 -27t-78 27t-46 69h-68h-32v32v425v183v32zM64 684v-136v-408h36q12 42 46 69t78 27t78 -27t46 -69h164v448v96h-448z
M576 556v-416h36q12 42 46 69t78 27t78 -27t46 -69h36v242q-44 43 -174 174h-146zM224 172q-26 0 -45 -19t-19 -45t19 -45t45 -19t45 19t19 45t-19 45t-45 19zM736 172q-26 0 -45 -19t-19 -45t19 -45t45 -19t45 19t19 45t-19 45t-45 19z" />
    <glyph glyph-name="unif0d2" unicode="&#xf0d2;" 
d="M512 748q160 0 272 -112t112 -272t-112 -272t-272 -112q-58 0 -114 18q38 60 48 100q8 30 24 92q10 -20 35 -33t53 -13q86 0 143 70t57 170q0 94 -69 158t-169 64q-118 0 -186 -68t-68 -164q0 -46 22 -90t56 -60q12 -4 14 6q0 2 4 19t6 25q2 6 -2 10q-30 34 -30 88
q0 68 48 117t126 49q72 0 116 -43t44 -113q0 -76 -34 -126t-86 -50q-28 0 -46 21t-10 49q4 16 12 44t12 48q6 22 6 36q0 24 -12 39t-36 15q-28 0 -49 -27t-21 -67q0 -14 3 -29t7 -21q1 -2 2 -6q-38 -162 -44 -192q-10 -38 -2 -110q-108 44 -176 141t-68 217q0 160 112 272
t272 112z" />
    <glyph glyph-name="unif0d3" unicode="&#xf0d3;" 
d="M512 748q160 0 272 -112t112 -272t-112 -272t-272 -112q-58 0 -114 18q38 60 48 100q8 30 24 92q10 -20 35 -33t53 -13q86 0 143 70t57 170q0 94 -69 158t-169 64q-118 0 -186 -68t-68 -164q0 -46 22 -90t56 -60q12 -4 14 6q0 2 4 19t6 25q2 6 -2 10q-30 34 -30 88
q0 68 48 117t126 49q72 0 116 -43t44 -113q0 -76 -34 -126t-86 -50q-28 0 -46 21t-10 49q4 16 12 44t12 48q6 22 6 36q0 24 -12 39t-36 15q-28 0 -49 -27t-21 -67q0 -14 3 -29t7 -21q1 -2 2 -6q-38 -162 -44 -192q-10 -38 -2 -110q-108 44 -176 141t-68 217q0 160 112 272
t272 112z" />
    <glyph glyph-name="unif0d4" unicode="&#xf0d4;" 
d="M485 32q-71 -37 -152 -37h-17q-91 5 -165 51q-55 35 -89 86q-34 50 -48 106q-9 38 -9 77q0 67 28 134q43 106 151 159q67 33 139 33q24 0 49 -4q98 -14 171 -80q-14 -13 -50 -48l-37 -35q-46 46 -116 50q-69 4 -123 -32q-55 -35 -77 -99q-23 -63 -7 -126q17 -62 66 -104
q50 -42 116 -44q65 -3 125 33t70 104h-56h-58h-52h-46h-79q-14 0 73 0h16h17v113h305q7 -36 7 -71q0 -71 -30 -133q-46 -93 -122 -133zM1016 365v-44v-50h-90v-91h-95v91h-90v94h90v91h95v-91h90z" />
    <glyph glyph-name="unif0d5" unicode="&#xf0d5;" 
d="M485 32q-71 -37 -152 -37h-17q-91 5 -165 51q-55 35 -89 86q-34 50 -48 106q-9 38 -9 77q0 67 28 134q43 106 151 159q67 33 139 33q24 0 49 -4q98 -14 171 -80q-14 -13 -50 -48l-37 -35q-46 46 -116 50q-69 4 -123 -32q-55 -35 -77 -99q-23 -63 -7 -126q17 -62 66 -104
q50 -42 116 -44q65 -3 125 33t70 104h-56h-58h-52h-46h-79q-14 0 73 0h16h17v113h305q7 -36 7 -71q0 -71 -30 -133q-46 -93 -122 -133zM1016 365v-44v-50h-90v-91h-95v91h-90v94h90v91h95v-91h90z" />
    <glyph glyph-name="unif0d6" unicode="&#xf0d6;" 
d="M894 724l24 -136h-66q-3 15 -10 62q-91 -16 -362 -62h-380q199 34 794 136zM64 556h32h48h784h32v-32v-448v-32h-32h-832h-32v32v250v150v48v32zM222 492q2 -10 2 -16q0 -34 -23 -57t-57 -23q-6 0 -16 2v-196q10 2 16 2q34 0 57 -23t23 -57q0 -6 -2 -16h580q-2 10 -2 16
q0 34 23 57t57 23q6 0 16 -2v196q-10 -2 -16 -2q-34 0 -57 23t-23 57q0 6 2 16h-580zM512 460q66 0 113 -47t47 -113t-47 -113t-113 -47t-113 47t-47 113t47 113t113 47zM512 396q-40 0 -68 -28t-28 -68t28 -68t68 -28t68 28t28 68t-28 68t-68 28z" />
    <glyph glyph-name="unif0d7" unicode="&#xf0d7;" 
d="M116 492h76h640h76l-52 -56l-320 -320l-24 -20l-24 20l-320 320zM270 428l242 -242l242 242h-484z" />
    <glyph glyph-name="unif0d8" unicode="&#xf0d8;" 
d="M512 600l24 -20l320 -320l52 -56h-76h-640h-76l52 56l320 320zM512 510q-60 -61 -242 -242h484q-61 60 -242 242z" />
    <glyph glyph-name="unif0d9" unicode="&#xf0d9;" 
d="M640 728v-76v-576v-76l-56 52l-288 288l-20 24l20 24l288 288zM576 574q-52 -53 -210 -210l210 -210v420z" />
    <glyph glyph-name="unif0da" unicode="&#xf0da;" 
d="M384 728l56 -52l288 -288l20 -24l-20 -24l-288 -288l-56 -52v76v576v76zM448 574v-420l210 210q-53 52 -210 210z" />
    <glyph glyph-name="unif0db" unicode="&#xf0db;" 
d="M160 716h32h640h32v-32v-640v-32h-32h-640h-32v32v400v240v32zM224 652v-576h256v576h-256zM544 652v-576h256v576h-256z" />
    <glyph glyph-name="unif0dc" unicode="&#xf0dc;" 
d="M512 760l24 -20l256 -256l52 -56h-76h-512h-76l52 56l256 256zM512 670q-44 -45 -178 -178h356q-45 44 -178 178zM180 300h76h512h76l-52 -56l-256 -256l-24 -20l-24 20l-256 256zM334 236l178 -178l178 178h-356z" />
    <glyph glyph-name="unif0dd" unicode="&#xf0dd;" 
d="M116 492h76h640h76l-52 -56l-320 -320l-24 -20l-24 20l-320 320zM270 428l242 -242l242 242h-484z" />
    <glyph glyph-name="unif0de" unicode="&#xf0de;" 
d="M512 600l24 -20l320 -320l52 -56h-76h-640h-76l52 56l320 320zM512 510q-60 -61 -242 -242h484q-61 60 -242 242z" />
    <glyph glyph-name="unif0e0" unicode="&#xf0e0;" 
d="M96 620h32h768h32v-32v-512v-32h-32h-768h-32v32v512v32zM234 556q69 -46 278 -184q70 46 278 184h-556zM160 528v-420h704v420q-84 -56 -334 -224q-5 -3 -18 -10q-4 2 -18 10q-83 56 -334 224z" />
    <glyph glyph-name="unif0e1" unicode="&#xf0e1;" 
d="M263 739q33 0 57 -24t24 -57q0 -32 -24 -56t-57 -24t-57 24t-24 56q0 33 24 57t57 24zM696 524q99 0 133 -55q34 -56 34 -160v-251h-140v221q0 120 -75 120q-83 0 -83 -117v-224h-141v454h135v-63h3q38 75 134 75zM194 512h144v-454h-144v114v340z" />
    <glyph glyph-name="unif0e2" unicode="&#xf0e2;" 
d="M480 780h32v-64h-32v64zM412 766q4 -16 16 -62q-6 -2 -24 -6l-2 -2q-6 -2 -22 -8h-2h-2q-6 14 -26 58q1 0 2 2h2h2q7 2 26 10h2v2q7 1 28 6zM640 748h32h224v-64h-116q148 -124 148 -320q0 -172 -122 -294t-294 -122t-294 122t-122 294v32h64v-32q0 -146 103 -249
t249 -103t249 103t103 249q0 92 -43 169t-117 127v-168h-64v224v32zM292 716q9 -14 36 -54q-4 -3 -16 -10h-2q-4 -4 -18 -16h-2l-6 -6l-44 48q2 2 10 8h2v2q5 4 22 16h2zM196 632l48 -40l-8 -8v-2q-3 -5 -14 -18q0 -1 -2 -4q-2 -4 -8 -14q-14 8 -56 34q3 4 12 18v2
q4 5 18 22l2 2zM128 524l56 -28v-2q-2 -6 -8 -22v-2q-2 -7 -8 -26q-15 4 -60 18q1 6 6 26q0 1 2 4q2 6 8 26v2h2q1 1 2 4z" />
    <glyph glyph-name="unif0e3" unicode="&#xf0e3;" 
d="M512 824l20 -20q24 -25 96 -98q6 -6 24 -22l-24 -24l-8 -8q45 -45 180 -178q2 2 8 10l24 20l20 -20q24 -25 96 -98q6 -6 24 -22l-24 -24l-224 -224q-5 -6 -20 -22q-6 5 -24 22l-96 96l-24 24q6 5 24 22q3 2 12 10l-68 68l-376 -380l-48 48l380 376l-68 68l-12 -12
q-5 -6 -20 -22q-6 5 -24 22l-96 96l-24 24q6 5 24 22q56 56 224 226zM512 736l-180 -180l52 -52q44 45 178 180q-13 13 -50 52zM576 606q-28 -29 -114 -114l178 -178l114 114q-45 44 -178 178zM832 416q-2 -3 -10 -10q-42 -43 -170 -170l52 -52q44 45 178 180q-13 13 -50 52
z" />
    <glyph glyph-name="unif0e4" unicode="&#xf0e4;" 
d="M95 124q0 61 16 116q17 56 46 104q55 88 149 143q94 54 206 54t205 -54q94 -55 149 -143q30 -48 46 -104q16 -55 16 -116h-323q-75 0 -9 0q8 16 9 35q2 18 -4 35q24 29 42 51t31 38q11 13 19 23t14 17l28 35q4 4 24 29l-26 26q-65 -52 -194 -157q-24 7 -50 1
q-25 -5 -44 -25q-22 -22 -27 -52q-4 -30 9 -57h-324q-40 0 -39 0h31v1zM512 318v82q-1 41 0 84q-88 0 -163 -38q-74 -39 -123 -103q-27 -35 -45 -76q-17 -41 -24 -86h41h33h22h16h44h48q6 57 49 97t102 40zM483 195q12 12 29 12q16 0 29 -12q12 -12 12 -29t-12 -29
q-13 -12 -29 -12q-17 0 -29 12q-13 11 -13 29q0 17 13 29z" />
    <glyph glyph-name="unif0e5" unicode="&#xf0e5;" 
d="M96 684h32h768h32v-32v-576v-32h-32h-274q-21 -22 -86 -88l-24 -20l-24 20q-22 22 -86 88h-274h-32v32v576v32zM160 620v-512h256h12l12 -8q18 -19 72 -74q18 18 72 74l12 8h12h256v512h-704z" />
    <glyph glyph-name="unif0e6" unicode="&#xf0e6;" 
d="M64 716h32h576h32v-32v-448v-32h-32h-276l-152 -120l-52 -44v68v96h-96h-32v32v280v168v32zM128 652v-384h96h32v-32v-60l108 84l8 8h12h256v384h-512zM768 588h192v-512h-128v-164l-204 164h-296l80 64h240l116 -92v92h128v384h-128v64z" />
    <glyph glyph-name="unif0e7" unicode="&#xf0e7;" 
d="M470 712h281q-62 -86 -186 -259h186q-143 -163 -429 -490q50 112 148 337h-157q52 137 157 412z" />
    <glyph glyph-name="unif0e8" unicode="&#xf0e8;" 
d="M384 716h32h192h32v-32v-192v-32h-32h-64v-64h288h32v-32v-96h64h32v-32v-192v-32h-32h-192h-32v32v192v32h32h64v64h-256v-64h64h32v-32v-192v-32h-32h-192h-32v32v192v32h32h64v64h-256v-64h64h32v-32v-192v-32h-32h-192h-32v32v192v32h32h64v96v32h32h288v64h-64h-32
v32v192v32zM448 652v-128h128v128h-128zM128 204v-128h128v128h-128zM448 204v-128h128v128h-128zM768 204v-128h128v128h-128z" />
    <glyph glyph-name="unif0e9" unicode="&#xf0e9;" 
d="M480 748h64v-66q142 -12 244 -112t108 -226v-12h-64q0 8 -16 16q-28 16 -64 16t-64 -16q-16 -8 -16 -16h-64q0 8 -20 16q-30 16 -76 16t-76 -16q-20 -8 -20 -16h-64q0 8 -16 16q-28 16 -64 16t-64 -16q-16 -8 -16 -16h-64v6v6q6 126 108 226t244 112v66zM512 620
q-100 0 -184 -59t-118 -141q30 8 62 8q54 0 96 -24q6 -4 16 -12h2q14 10 22 14q44 22 104 22t104 -22q12 -6 24 -14q10 8 16 12q42 24 96 24q32 0 62 -8q-34 82 -118 140q-84 60 -184 60zM480 332h64v-256q0 -40 -28 -68t-68 -28t-68 28t-28 68v32h64v-32q0 -32 32 -32
t32 32v256z" />
    <glyph glyph-name="unif0ea" unicode="&#xf0ea;" 
d="M480 780q58 0 84 -64h76h32h96h32v-32v-256h32h32v-32v-448v-32h-32h-384h-32v32v32h-224h-32v32v420v252v32h32h128h76q26 64 84 64zM480 716q-14 0 -23 -9t-9 -23v-32h-32h-64v-64h256v64h-64h-32v32q0 14 -10 22q-8 10 -22 10zM224 652v-608h192v352v32h32h288v224
h-64v-96v-32h-32h-320h-32v32v96h-64zM480 364v-384h320v384h-320z" />
    <glyph glyph-name="unif0eb" unicode="&#xf0eb;" 
d="M512 780q118 0 203 -85t85 -203q0 -122 -92 -216q-64 -58 -64 -130v-6v-32h-4v-96v-32h-32h-40q-20 -32 -56 -32t-56 32h-40h-32v32v128v32q-10 58 -56 96q-56 48 -83 116q-20 50 -20 103q0 20 3 41q14 98 84 168t168 80zM512 716q-10 -2 -24 -4q-76 -8 -131 -62
t-65 -130q-3 -19 -3 -37q0 -96 81 -165q64 -54 74 -146h140q12 88 80 150q-1 0 -2 2q74 72 74 168q0 92 -66 158t-158 66zM448 108v-64h128v64h-128z" />
    <glyph glyph-name="unif0ec" unicode="&#xf0ec;" 
d="M838 932l192 -192q6 -6 22 -24q-5 -6 -22 -24l-192 -192q-11 12 -46 48q34 34 138 136h-674v64h674q-35 34 -138 136q12 12 46 48zM442 484q11 -12 46 -48q-34 -34 -138 -136h674v-64h-674q35 -34 138 -136q-12 -12 -46 -48l-192 192q-6 6 -22 24q5 6 22 24z" />
    <glyph glyph-name="unif0ed" unicode="&#xf0ed;" 
d="M480 492h64v-210q18 18 72 74l48 -48l-128 -128l-24 -20l-24 20l-128 128l48 48q18 -19 72 -74v210zM362 411q-70 22 -118 3q-49 -18 -75 -55q-14 -20 -22 -43q-7 -22 -7 -45q0 -63 45 -107q44 -45 108 -45h342q-73 0 -35 0t49 1q118 16 177 92q58 77 62 170q1 6 1 12
q0 48 -18 90q-20 46 -54 80q-64 63 -160 78q-21 3 -41 3q-72 0 -135 -42q-41 -27 -72 -75q-31 -47 -47 -117zM957 390q0 -45 -12 -87q-11 -43 -32 -80q-39 -69 -105 -113t-147 -44h-58h-68h-35q-19 0 -46 -1h-76h-101q-86 0 -146 61q-61 60 -61 146q0 85 61 146
q60 61 146 61q11 0 21 -1l20 -4q22 70 60 119q39 49 87 78q50 30 108 39q28 5 55 5q30 0 59 -5q104 -19 185 -102q80 -82 85 -218z" />
    <glyph glyph-name="unif0ee" unicode="&#xf0ee;" 
d="M544 370q18 -19 72 -74l48 48l-128 128l-24 20l-24 -20l-128 -128l48 -48q18 18 72 74v-210h64v210zM362 411q-70 22 -118 3q-49 -18 -75 -55q-14 -20 -22 -43q-7 -22 -7 -45q0 -63 45 -107q44 -45 108 -45h342q-73 0 -35 0t49 1q118 16 177 92q58 77 62 170q1 6 1 12
q0 48 -18 90q-20 46 -54 80q-64 63 -160 78q-21 3 -41 3q-72 0 -135 -42q-41 -27 -72 -75q-31 -47 -47 -117zM957 390q0 -45 -12 -87q-11 -43 -32 -80q-39 -69 -105 -113t-147 -44h-58h-68h-35q-19 0 -46 -1h-76h-101q-86 0 -146 61q-61 60 -61 146q0 85 61 146
q60 61 146 61q11 0 21 -1l20 -4q22 70 60 119q39 49 87 78q50 30 108 39q28 5 55 5q30 0 59 -5q104 -19 185 -102q80 -82 85 -218z" />
    <glyph glyph-name="unif0f0" unicode="&#xf0f0;" 
d="M270 684h18h448h16q2 -3 10 -12q26 -38 52 -108q50 -142 50 -328v-32h-32h-164q4 -14 4 -32q0 -66 -47 -113t-113 -47t-113 47t-47 113q0 18 4 32h-164h-32v32q0 118 25 227t51 157l24 48q3 4 10 16zM308 620q-10 -20 -24 -52t-34 -118t-22 -182h156q48 64 128 64
t128 -64h156q-4 164 -42 272q-18 50 -38 80h-408zM480 556h64v-64h64v-64h-64v-64h-64v64h-64v64h64v64zM512 268q-40 0 -68 -28t-28 -68t28 -68t68 -28t68 28t28 68t-28 68t-68 28zM512 204q14 0 23 -9t9 -23t-9 -23t-23 -9t-23 9t-9 23t9 23t23 9z" />
    <glyph glyph-name="unif0f1" unicode="&#xf0f1;" 
d="M224 748q26 0 45 -19t19 -45t-19 -45t-45 -19q-32 0 -52 26q-12 -10 -12 -26v-274q78 -78 160 -78t160 78v274q0 16 -12 26q-20 -26 -52 -26q-26 0 -45 19t-19 45t19 45t45 19q40 0 56 -36q32 -8 52 -34t20 -58v-288v-12l-8 -8q-8 -10 -24 -26t-64 -44t-96 -34v-68
q0 -54 37 -91t91 -37t91 37t37 91v160q0 52 38 90t90 38t90 -38t38 -90v-6q64 -24 64 -90q0 -40 -28 -68t-68 -28t-68 28t-28 68q0 66 64 90v6q0 26 -19 45t-45 19t-45 -19t-19 -45v-160q0 -80 -56 -136t-136 -56t-136 56t-56 136v68q-48 6 -94 32t-68 48q-7 8 -22 24l-8 8
v12v54v234q0 32 20 58t52 34q16 36 56 36zM832 236q-32 0 -32 -32t32 -32t32 32t-32 32z" />
    <glyph glyph-name="unif0f2" unicode="&#xf0f2;" 
d="M448 780h128q26 0 45 -19t19 -45v-32h96v32h64v-32h64q26 0 45 -19t19 -45v-512q0 -26 -19 -45t-45 -19h-704q-26 0 -45 19t-19 45v192v320q0 26 19 45t45 19h64v32h64v-32h96v32q0 26 19 45t45 19zM448 716v-32h128v32h-128zM160 620v-512h64v511h64v-511h448v511h64
v-511h64v512h-704z" />
    <glyph glyph-name="unif0f3" unicode="&#xf0f3;" 
d="M480 780q26 0 45 -19t19 -45v-8q84 -22 138 -94t54 -162v-280q0 -32 32 -32h32v-64h-230q6 -16 6 -32q0 -40 -28 -68t-68 -28t-68 28t-28 68q0 16 6 32h-230v64h32q32 0 32 32v288q0 88 55 157t137 91v8q0 26 18 44q20 20 46 20zM466 652q-76 -6 -127 -61t-51 -131v-288
q0 -16 -6 -32h396q-6 16 -6 32v280q0 80 -54 139t-132 61h-6h-8h-6zM480 76q-32 0 -32 -32t32 -32t32 32t-32 32z" />
    <glyph glyph-name="unif0f4" unicode="&#xf0f4;" 
d="M512 940h64v-128h-64v128zM640 908h64v-96h-64v96zM320 780h32h512h32v-32v-96h64q40 0 68 -28t28 -68v-96q0 -40 -28 -68t-68 -28h-64v-160q0 -40 -28 -68t-68 -28h-384q-40 0 -68 28t-28 68v544v32zM384 716v-512q0 -14 9 -23t23 -9h384q14 0 23 9t9 23v512h-448z
M896 588v-160h64q14 0 23 9t9 23v96q0 14 -9 23t-23 9h-64z" />
    <glyph glyph-name="unif0f5" unicode="&#xf0f5;" 
d="M716 748q11 -11 46 -44q-37 -37 -146 -148q-22 -22 -2 -44q57 56 170 168l44 -44q-42 -43 -168 -170q22 -20 44 2q49 48 148 146q11 -12 44 -46l-144 -144l-4 -4q-26 -26 -65 -26t-67 26h-2l-56 -56l38 -38q73 -73 292 -290l-48 -48q-67 67 -268 270q-14 -15 -56 -58
q-6 -6 -24 -22l-22 22l-38 38q-62 -63 -248 -250l-48 48q62 62 250 248q-51 50 -202 200q-42 44 -42 104t42 104q8 6 24 20l24 -20l240 -240q10 -11 40 -42l56 56q-26 28 -26 68t26 66zM216 612q-6 -17 -6 -31q0 -28 22 -49q87 -88 260 -264l36 36z" />
    <glyph glyph-name="unif0f6" unicode="&#xf0f6;" 
d="M160 780h32h384h12l12 -8l192 -192l8 -12v-12v-576v-32h-32h-576h-32v32v480v288v32zM224 716v-704h512v512h-160h-32v32v160h-320zM608 670v-82h82q-21 20 -82 82z" />
    <glyph glyph-name="unif0f7" unicode="&#xf0f7;" 
d="M128 780h32h704h32v-32v-768v-32h-32h-288h-32v32v96h-64v-96v-32h-32h-288h-32v32v480v288v32zM192 716v-704h224v96v32h32h128h32v-32v-96h224v704h-640zM256 652h128v-64h-128v64zM448 652h128v-64h-128v64zM640 652h128v-64h-128v64zM256 524h128v-64h-128v64z
M448 524h128v-64h-128v64zM640 524h128v-64h-128v64zM256 396h128v-64h-128v64zM448 396h128v-64h-128v64zM640 396h128v-64h-128v64zM256 268h128v-64h-128v64zM448 268h128v-64h-128v64zM640 268h128v-64h-128v64zM256 140h128v-64h-128v64zM640 140h128v-64h-128v64z" />
    <glyph glyph-name="unif0f8" unicode="&#xf0f8;" 
d="M448 780h64v-64h64v-64h-64v-64h-64v64h-64v64h64v64zM160 716h32h128v-64h-96v-608h160v64v32h32h128h32v-32v-64h160v608h-96v64h128h32v-32v-672v-32h-32h-224h-32v32v64h-64v-64v-32h-32h-224h-32v32v420v252v32zM320 524h64v-64h-64v64zM448 524h64v-64h-64v64z
M576 524h64v-64h-64v64zM320 396h64v-64h-64v64zM448 396h64v-64h-64v64zM576 396h64v-64h-64v64zM320 268h64v-64h-64v64zM448 268h64v-64h-64v64zM576 268h64v-64h-64v64z" />
    <glyph glyph-name="unif0f9" unicode="&#xf0f9;" 
d="M544 780q26 0 45 -19t19 -45v-32h128h16l8 -12l192 -224l8 -8v-12v-320v-32h-32h-68q-12 -42 -46 -69t-78 -27t-78 27t-46 69h-264q-12 -42 -46 -69t-78 -27t-78 27t-46 69h-68h-32v32v380v164v32h32h448v32q0 26 18 44q20 20 46 20zM64 620v-61v-419h36q12 42 46 69
t78 27t78 -27t46 -69h264q12 42 46 69t78 27t78 -27t46 -69h36v276l-176 204h-656zM416 524h64v-96h96v-64h-96v-96h-64v96h-96v64h96v96zM224 172q-26 0 -45 -19t-19 -45t19 -45t45 -19t45 19t19 45t-19 45t-45 19zM736 172q-26 0 -45 -19t-19 -45t19 -45t45 -19t45 19
t19 45t-19 45t-45 19z" />
    <glyph glyph-name="unif0fa" unicode="&#xf0fa;" 
d="M448 716h128q26 0 45 -19t19 -45v-32h192q40 0 68 -28t28 -68v-448v-32h-32h-768h-32v32v105v343q0 40 28 68t68 28h192v32q0 26 19 45t45 19zM448 652v-32h128v32h-128zM192 556q-32 0 -32 -32v-416h704v416q0 32 -32 32h-640zM480 460h64v-96h96v-64h-96v-96h-64v96
h-96v64h96v96z" />
    <glyph glyph-name="unif0fb" unicode="&#xf0fb;" 
d="M252 748h36h64h12l12 -8q70 -70 278 -280h178q34 0 82 -40q13 -12 38 -34q5 -6 20 -22q-5 -6 -20 -22q-16 -18 -38 -34q-48 -40 -82 -40h-178q-69 -70 -278 -280l-12 -8h-12h-64h-36l4 36l28 252h-28q-14 -21 -54 -82q-3 -4 -10 -14h-16h-80h-40q2 9 8 38q8 38 32 154
q-8 38 -32 154q-2 9 -8 38h40h80h16q2 -4 10 -14q13 -21 54 -82h28l-28 252zM324 684l28 -252l4 -36h-36h-80h-18q-2 3 -10 14q-13 20 -54 82h-22q6 -31 24 -122v-6v-6q-6 -31 -24 -122h22q14 20 54 82q3 3 10 14h18h80h36l-4 -36l-28 -252h14q69 70 278 280l12 8h12h192
l6 3t16 9q12 6 18 12q4 2 8 8q-4 6 -8 8q-6 6 -17 12t-17 8l-6 4h-192h-12l-12 8q-70 70 -278 280h-14zM512 652h128l32 -32l-32 -32h-64zM576 140h64l32 -32l-32 -32h-128z" />
    <glyph glyph-name="unif0fc" unicode="&#xf0fc;" 
d="M432 748q48 0 90 -36q20 4 22 4q30 0 64 -20q34 20 64 20q52 0 90 -38t38 -90q0 -46 -32 -84v-2v-4v-38h32q40 0 68 -28t28 -68v-128q0 -40 -28 -68t-68 -28h-32v-64q0 -40 -28 -68t-68 -28h-384q-40 0 -68 28t-28 68v416q0 6 2 12q-34 36 -34 84q0 52 38 90t90 38
q10 0 44 -12q44 44 100 44zM432 684q-42 0 -64 -34q-7 -9 -20 -26l-24 16t-36 12q-26 0 -45 -19t-19 -45t19 -45t45 -19t46 20l22 22q5 -6 22 -22q24 -20 54 -20q8 0 20 4q4 2 12 8l48 28v-56q0 -48 -18 -104q-14 -44 -14 -56q0 -20 14 -34t34 -14t34 14t14 34q0 12 -14 56
q-18 54 -18 104v44l40 -12q52 -16 88 -16q26 0 45 19t19 45t-19 45t-45 19q-24 0 -44 -16l-20 -20l-20 20q-20 16 -44 16q-6 0 -20 -4q-7 -2 -20 -6q-3 3 -12 14q-26 28 -60 28zM358 484q-36 -24 -70 -24q-12 0 -32 4v-388q0 -32 32 -32h384q32 0 32 32v88v7v7v242
q-2 4 -2 9t2 9v26q-20 -4 -32 -4q-20 0 -58 8q0 -4 2 -14t2 -18q2 -8 4 -12q18 -56 18 -76q0 -46 -33 -79t-79 -33t-79 33t-33 79q0 20 18 76q2 6 3 20t3 18q-2 0 -4 -1t-4 -1q-36 0 -74 24zM768 396v-192h32q32 0 32 32v128q0 32 -32 32h-32z" />
    <glyph glyph-name="unif0fd" unicode="&#xf0fd;" 
d="M160 716h32h640h32v-32v-640v-32h-32h-640h-32v32v400v240v32zM224 652v-576h576v576h-576zM352 556h64v-160h192v160h64v-384h-64v160h-192v-160h-64v384z" />
    <glyph glyph-name="unif0fe" unicode="&#xf0fe;" 
d="M160 716h32h640h32v-32v-640v-32h-32h-640h-32v32v400v240v32zM224 652v-576h576v576h-576zM480 524h64v-128h128v-64h-128v-128h-64v128h-128v64h128v128z" />
    <glyph glyph-name="unif100" unicode="&#xf100;" 
d="M508 724q11 -12 46 -48q-79 -78 -314 -312q78 -78 314 -312q-12 -12 -46 -48l-336 336q-5 6 -22 24q6 6 22 24zM732 724q11 -12 46 -48q-79 -78 -314 -312q78 -78 314 -312q-12 -12 -46 -48l-336 336q-5 6 -22 24q6 6 22 24z" />
    <glyph glyph-name="unif101" unicode="&#xf101;" 
d="M292 724l336 -336q5 -6 22 -24q-6 -6 -22 -24l-336 -336q-11 12 -46 48q79 78 314 312q-78 78 -314 312q12 12 46 48zM516 724l336 -336q5 -6 22 -24q-6 -6 -22 -24l-336 -336q-11 12 -46 48q79 78 314 312q-78 78 -314 312q12 12 46 48z" />
    <glyph glyph-name="unif102" unicode="&#xf102;" 
d="M520 663q6 -5 24 -22l368 -368q-12 -11 -48 -46q-86 87 -344 346q-86 -86 -344 -346q-12 12 -48 46l368 368q6 6 24 22zM520 439q6 -5 24 -22l368 -368q-12 -11 -48 -46q-86 87 -344 346q-86 -86 -344 -346q-12 12 -48 46l368 368q6 6 24 22z" />
    <glyph glyph-name="unif103" unicode="&#xf103;" 
d="M168 662q86 -87 344 -346q86 86 344 346q12 -12 48 -46l-368 -368q-6 -6 -24 -22q-6 5 -24 22l-368 368q12 11 48 46zM168 438q86 -87 344 -346q86 86 344 346q12 -12 48 -46l-368 -368q-6 -6 -24 -22q-6 5 -24 22l-368 368q12 11 48 46z" />
    <glyph glyph-name="unif104" unicode="&#xf104;" 
d="M608 740l48 -48q-82 -82 -330 -328q83 -82 330 -328l-48 -48l-352 352l-20 24l20 24z" />
    <glyph glyph-name="unif105" unicode="&#xf105;" 
d="M416 740l352 -352l20 -24l-20 -24l-352 -352l-48 48q82 82 330 328q-83 82 -330 328z" />
    <glyph glyph-name="unif106" unicode="&#xf106;" 
d="M512 664l24 -20l400 -400l-48 -48q-94 94 -376 378q-94 -95 -376 -378l-48 48l400 400z" />
    <glyph glyph-name="unif107" unicode="&#xf107;" 
d="M136 532q94 -95 376 -378q94 94 376 378l48 -48l-400 -400l-24 -20l-24 20l-400 400z" />
    <glyph glyph-name="unif108" unicode="&#xf108;" 
d="M64 684h32h832h32v-32v-512v-32h-32h-384v-64h160v-64h-384v64h160v64h-384h-32v32v320v192v32zM128 620v-448h768v448h-768z" />
    <glyph glyph-name="unif109" unicode="&#xf109;" 
d="M160 684h32h640h32v-32v-402q18 -19 72 -74q24 -24 24 -56q0 -30 -23 -53t-53 -23h-744q-30 0 -53 23t-23 53q0 32 24 56t72 74v402v32zM224 620v-352h576v352h-576zM206 204q-18 -18 -74 -72q-4 -4 -4 -12q0 -12 12 -12h744q12 0 12 12q0 8 -4 12q-25 24 -74 72h-612z
" />
    <glyph glyph-name="unif10a" unicode="&#xf10a;" 
d="M160 684h704q40 0 68 -28t28 -68v-448q0 -40 -28 -68t-68 -28h-704q-40 0 -68 28t-28 68v191v257q0 40 28 68t68 28zM160 620q-14 0 -23 -9t-9 -23v-66v-382q0 -14 9 -23t23 -9h704q14 0 23 9t9 23v448q0 14 -9 23t-23 9h-704zM192 396q14 0 23 -9t9 -23t-9 -23t-23 -9
t-23 9t-9 23t9 23t23 9z" />
    <glyph glyph-name="unif10b" unicode="&#xf10b;" 
d="M352 748h320q40 0 68 -28t28 -68v-576q0 -40 -28 -68t-68 -28h-320q-40 0 -68 28t-28 68v288v288q0 40 28 68t68 28zM352 684q-14 0 -23 -9t-9 -23v-576q0 -14 9 -23t23 -9h320q14 0 23 9t9 23v576q0 14 -9 23t-23 9h-320zM512 140q14 0 23 -9t9 -23t-9 -23t-23 -9t-23 9
t-9 23t9 23t23 9z" />
    <glyph glyph-name="unif10c" unicode="&#xf10c;" 
d="M512 748q158 0 271 -113t113 -271t-113 -271t-271 -113t-271 113t-113 271t113 271t271 113zM512 684q-132 0 -226 -94t-94 -226t94 -226t226 -94t226 94t94 226t-94 226t-226 94z" />
    <glyph glyph-name="unif10d" unicode="&#xf10d;" 
d="M320 620v-64q-54 0 -91 -37t-37 -91h224h32v-32v-256v-32h-32h-256h-32v32v54v234q0 80 56 136t136 56zM768 620v-64q-54 0 -91 -37t-37 -91h224h32v-32v-256v-32h-32h-256h-32v32v288q0 80 56 136t136 56zM192 364v-192h192v192h-192zM640 364v-192h192v192h-192z" />
    <glyph glyph-name="unif10e" unicode="&#xf10e;" 
d="M128 620h32h256h32v-32v-288q0 -80 -56 -136t-136 -56v64q54 0 91 37t37 91h-224h-32v32v256v32zM576 620h32h256h32v-32v-288q0 -80 -56 -136t-136 -56v64q54 0 91 37t37 91h-224h-32v32v256v32zM192 556v-192h192v192h-192zM640 556v-192h192v192h-192z" />
    <glyph glyph-name="unif10f" unicode="&#xf10f;" 
d="M512 726q6 -6 24 -22l368 -368q-12 -12 -48 -46q-86 86 -344 346q-86 -87 -344 -346q-12 11 -48 46l368 368q6 5 24 22zM512 502q6 -6 24 -22l368 -368q-12 -12 -48 -46q-86 86 -344 346q-86 -87 -344 -346q-12 11 -48 46l368 368q6 5 24 22z" />
    <glyph glyph-name="unif110" unicode="&#xf110;" 
d="M512 780q40 0 68 -28t28 -68t-28 -68t-68 -28t-68 28t-28 68t28 68t68 28zM286 670q34 0 57 -23t23 -57t-23 -57t-57 -23t-57 23t-23 57t23 57t57 23zM738 622q14 0 23 -9t9 -23t-9 -23t-23 -9t-23 9t-9 23t9 23t23 9zM192 436q30 0 51 -21t21 -51t-21 -51t-51 -21
t-51 21t-21 51t21 51t51 21zM832 404q16 0 28 -12t12 -28t-12 -28t-28 -12t-28 12t-12 28t12 28t28 12zM286 202q26 0 45 -19t19 -45t-19 -45t-45 -19t-45 19t-19 45t19 45t45 19zM738 186q20 0 34 -14t14 -34t-14 -34t-34 -14t-34 14t-14 34t14 34t34 14zM512 100
q24 0 40 -16t16 -40t-16 -40t-40 -16t-40 16t-16 40t16 40t40 16z" />
    <glyph glyph-name="unif111" unicode="&#xf111;" 
d="M512 748q158 0 271 -113t113 -271t-113 -271t-271 -113t-271 113t-113 271t113 271t271 113zM512 684q-132 0 -226 -94t-94 -226t94 -226t226 -94t226 94t94 226t-94 226t-226 94z" />
    <glyph glyph-name="unif112" unicode="&#xf112;" 
d="M392 708l48 -48q-50 -50 -202 -200h434q92 0 158 -66t66 -158t-66 -158t-158 -66v64q66 0 113 47t47 113t-47 113t-113 47h-434q51 -50 202 -200l-48 -48l-256 256l-20 24l20 24z" />
    <glyph glyph-name="unif113" unicode="&#xf113;" 
d="M182 716q36 0 86 -19t96 -63q72 18 148 18q78 0 146 -16q10 10 28 24t64 34q48 22 94 22q38 -90 8 -180q76 -82 76 -216q0 -166 -103 -237t-313 -71t-313 71t-103 237q0 130 80 214q-16 28 -16 78q0 30 6 56t10 36zM662 382q-20 0 -71 -3t-79 -3q-32 0 -80 2t-74 2
q-24 2 -52 -5t-46 -23q-58 -52 -58 -118q0 -110 81 -150t229 -40q182 0 251 38t69 158q0 46 -26 83t-70 49q-30 10 -74 10zM336 300q20 0 34 -19t14 -45t-14 -45t-34 -19t-34 19t-14 45t14 45t34 19zM688 300q20 0 34 -19t14 -45t-14 -45t-34 -19t-34 19t-14 45t14 45t34 19
zM332 272q-16 0 -16 -14t16 -14q12 0 12 14t-12 14zM684 272q-16 0 -16 -14t16 -14q12 0 12 14t-12 14z" />
    <glyph glyph-name="unif114" unicode="&#xf114;" 
d="M192 780h32h512h32h96h32v-32v-288v-12l-8 -12q-14 -14 -56 -54v-402v-32h-32h-576h-32v32v768v32zM256 716v-704h512v370q-14 13 -56 54l-8 12v12v256h-448zM768 716v-242l32 -32l32 32v242h-64z" />
    <glyph glyph-name="unif115" unicode="&#xf115;" 
d="M160 780h32h640h32v-32v-288v-12l-8 -12q-14 -14 -56 -54v-370v-32h-32h-160v-48v-40l-40 8l-384 80q-6 1 -24 6v26v460v276v32zM452 716l68 -16l24 -8v-24v-274q14 -14 56 -54l8 -12v-12v-272h128v352v12l8 12q14 13 56 54v242h-348zM224 708v-670q80 -17 320 -66v40v32
v258q-14 13 -56 54l-8 12v12v264z" />
    <glyph glyph-name="unif116" unicode="&#xf116;" 
d="M896 746v-66v-184v-68v-64v-352v-32h-32h-704h-32v32v224v64v48v144v40q10 -2 38 -8q37 -8 146 -30q46 30 182 122q3 1 10 6q3 -1 12 -2q45 -8 180 -30l148 116zM832 616l-108 -84q-3 -3 -12 -10q-3 0 -12 2q-45 7 -180 30q-46 -31 -182 -122q-3 -2 -10 -6q-4 0 -14 2
q-31 6 -122 24v-130q31 -13 124 -50q45 30 178 120q4 2 14 8q3 -2 14 -6q43 -15 174 -58l136 108v172zM832 360l-108 -84q-3 -3 -14 -12q-4 1 -16 6q-44 14 -176 58l-180 -120q-4 -2 -14 -8q-4 1 -16 6q-29 11 -116 46v-16v-192h640v316z" />
    <glyph glyph-name="unif117" unicode="&#xf117;" 
d="M512 780q172 0 294 -122t122 -294t-122 -294t-294 -122t-294 122t-122 294t122 294t294 122zM512 716q-146 0 -249 -103t-103 -249t103 -249t249 -103t249 103t103 249t-103 249t-249 103zM480 588h64v-328l128 128l44 -48l-180 -180l-24 -24l-24 24l-180 180l44 48
l128 -128v328z" />
    <glyph glyph-name="unif118" unicode="&#xf118;" 
d="M512 748q158 0 271 -113t113 -271t-113 -271t-271 -113t-271 113t-113 271t113 271t271 113zM512 684q-132 0 -226 -94t-94 -226t94 -226t226 -94t226 94t94 226t-94 226t-226 94zM368 492q20 0 34 -14t14 -34t-14 -34t-34 -14t-34 14t-14 34t14 34t34 14zM656 492
q20 0 34 -14t14 -34t-14 -34t-34 -14t-34 14t-14 34t14 34t34 14zM346 268q56 -96 166 -96t166 96q18 -11 54 -32q-32 -58 -91 -93t-129 -35t-129 35t-91 93q18 10 54 32z" />
    <glyph glyph-name="unif119" unicode="&#xf119;" 
d="M512 748q158 0 271 -113t113 -271t-113 -271t-271 -113t-271 113t-113 271t113 271t271 113zM512 684q-132 0 -226 -94t-94 -226t94 -226t226 -94t226 94t94 226t-94 226t-226 94zM368 492q20 0 34 -14t14 -34t-14 -34t-34 -14t-34 14t-14 34t14 34t34 14zM656 492
q20 0 34 -14t14 -34t-14 -34t-34 -14t-34 14t-14 34t14 34t34 14zM512 300q130 0 208 -108q-17 -12 -52 -36q-58 80 -156 80t-156 -80q-17 12 -52 36q78 108 208 108z" />
    <glyph glyph-name="unif11a" unicode="&#xf11a;" 
d="M512 748q158 0 271 -113t113 -271t-113 -271t-271 -113t-271 113t-113 271t113 271t271 113zM512 684q-132 0 -226 -94t-94 -226t94 -226t226 -94t226 94t94 226t-94 226t-226 94zM368 492q20 0 34 -14t14 -34t-14 -34t-34 -14t-34 14t-14 34t14 34t34 14zM656 492
q20 0 34 -14t14 -34t-14 -34t-34 -14t-34 14t-14 34t14 34t34 14zM352 236h320v-64h-320v64z" />
    <glyph glyph-name="unif11b" unicode="&#xf11b;" 
d="M648 516q0 15 11 26t26 11t26 -11t11 -26q0 -16 -11 -27t-26 -11q-16 0 -27 11q-10 11 -10 27zM722 365q0 -16 -11 -27t-26 -11t-26 11t-11 27q0 15 11 26t26 11t26 -11t11 -26zM646 441q0 -16 -11 -27t-26 -11t-26 11t-11 27q0 15 11 26t26 11q16 0 27 -11
q10 -11 10 -26zM797 441q0 -16 -11 -27t-26 -11t-27 11q-11 11 -11 27q0 15 11 26q12 11 27 11q16 0 27 -11q10 -11 10 -26zM458 440q0 -16 -11 -27t-26 -11h-38v-37q0 -16 -11 -27t-26 -11t-26 11q-12 11 -12 27v38q-59 0 -34 0t-3 0q-15 0 -26 11t-11 27q0 15 11 26t26 11
h37v38q0 15 12 26q11 11 26 11t26 -11t11 -26v-38q-59 0 -17 0h55q15 0 26 -11q11 -12 11 -27zM805 3l-173 173h-232q-20 -21 -24 -25t-32 -31l-16 -16l-21 -21l-34 -34l-46 -46q-18 -18 -38 -27q-20 -8 -40 -10h-9q-17 0 -33 4q-21 6 -39 18q-34 22 -52 61q-11 23 -11 50
q0 16 4 33l8 34q9 34 21 84q6 27 13 56l14 58q16 67 29 119l13 52v3t1 1q20 74 81 120q60 46 137 46q-39 0 -23 0h107h122h171q77 0 138 -46t81 -120l1 -2v-2l3 -11q2 -10 7 -28q8 -33 20 -86l26 -106q16 -67 29 -119t13 -53q4 -18 4 -34q0 -7 -1 -13q-2 -22 -11 -41
q-9 -20 -25 -35q-15 -16 -34 -26q-35 -19 -76 -15q-41 3 -73 35zM949 113l-8 34q-8 33 -20 83q-7 26 -14 55l-14 58q-16 67 -29 119l-12 51q0 1 -1 2v2q-13 50 -54 81q-41 32 -93 32h-47h-71h-36h-47h-76h-100q-52 0 -93 -32q-41 -31 -54 -81v-2q-1 -1 -1 -2l-12 -51
q-13 -52 -29 -119l-14 -58t-14 -55q-12 -50 -20 -83l-8 -34q-2 -7 -2 -14q0 -29 29 -48q16 -10 30 -10q18 0 33 15l25 25l34 34l17 17q10 10 23 22q16 17 37 38l48 48q6 5 13 8t14 3q-59 0 3 0h259q8 0 15 -3t13 -8l76 -76q53 -53 99 -98q2 -3 5 -5q2 -2 4 -5q17 -16 43 -12
q26 5 40 25q6 8 9 19q1 6 1 12q1 6 -1 13z" />
    <glyph glyph-name="unif11c" unicode="&#xf11c;" 
d="M64 652h832q26 0 45 -19t19 -45v-448q0 -26 -19 -45t-45 -19h-832q-26 0 -45 19t-19 45v190v258q0 26 19 45t45 19zM64 588v-57v-391h832v448h-832zM128 524h64v-64h-64v64zM256 524h64v-64h-64v64zM384 524h64v-64h-64v64zM512 524h64v-64h-64v64zM640 524h64v-64h-64
v64zM768 524h64v-64h-64v64zM128 396h128v-64h-128v64zM320 396h64v-64h-64v64zM448 396h64v-64h-64v64zM576 396h64v-64h-64v64zM704 396h128v-64h-128v64zM128 268h128v-64h-128v64zM320 268h320v-64h-320v64zM704 268h128v-64h-128v64z" />
    </font>
</defs>
</svg>
